1 сезон

3 сезон

iTunes

1

Line

MVO

iTunes

13

1 сезон

RePack

30

Deluxe

pack

Лицензия

ВАЖНО

ИГРА 18+

pack

RePack

MK11

RePack

jed

RePack

fifa19

RePack

RDR2

RePack

NEED FOR SPEED™ PAYBACK

4 сезон

9 сезон

Бесстыжие 9 сезон

Все сериалы

все сериалы на PB.wtf

RePack

FAR CRY 5

Anonymous, доброй ночи, мы катастрофически не успеваем собрать деньги на оплату серверов, помогите нам пожалуйста 5,10,15р., для нас важна любая помощь . В качестве благодарности мы отключим Вам всю рекламу на сайте (укажите свой ник в строку Ваше имя)!

×
  
Magnet ссылка

Молода и прекрасна / Jeune & jolie (Франсуа Озон / François Ozon) [2013, драма, DVD5] R5 pb.wtf

Молода и прекрасна через торрент pb.wtf

Размер: 4.05 GB | Добавлен: 7 лет 5 мес. назад | Торрент скачан:75 раз
Скачать  

02-02-2014 18:15 Молода и прекрасна Скачать торрент  


Молода и прекрасна / Jeune & jolie
Страна: Франция
Студия: Canal+ [fr], Ciné, Cofimage 24, Cofinova 9, FOZ, France 2 Cinéma, France Télévisions, La Banque Postale Image 6, Mandarin Films, Mars Films, Palatine Étoile 10, Région Ile-de-France, Sofica Manon 3
Жанр: драма
Год выпуска: 2013
Мировая премьера: 16 мая 2013
Российская премьера: 29 августа 2013
Украинская премьера: 29 августа 2013
Дата выхода DVD: 4 февраля 2014
Продолжительность: 01:29:31
Перевод: Профессиональный (дублированный) [Лицензия]
Cубтитры: нет
Оригинальная аудиодорожка: нет
Режиссер: Франсуа Озон / François Ozon
В ролях: Марина Вакт, Жеральдин Пайя, Фредерик Пьеро, Шарлотта Рэмплинг, Фантен Рава, Йохан Лейзен, Натали Ришар, Джедже Апали, Люка Призор, Лорен Дельбек...
Описание: Семнадцатилетняя Изабель погружается в бездонный мир любви, в поиски себя. Не столько из-за денег, сколько ради удовольствия, она встречается с немолодыми клиентами в гостиничных номерах. Близкие Изабель не подозревают, чем одержима умная и тонкая девушка. Но однажды умирает один из ее постоянных клиентов…
Бонусы: нет

Релиз группы:
Качество: DVD5 R5
Формат: DVD-Video
Видео кодек: MPEG2
Аудио кодек: AC3
Видео: PAL 16:9 (720x576(0.528)) MPEG Video, 25,000 кадр/сек, 5470 Кбит/сек
Аудио: Russian (Dolby AC3, 6 ch) 384 Кбит/сек, 48,0 КГц



Title: Molola.i.prekrasna.2013.DVD5
Size: 4.05 Gb ( 4 242 010,00 KBytes ) - DVD-5
Enabled regions: 1, 2, 3, 4, 5, 6, 7, 8

VTS_01 :
Play Length: 01:29:31
Video: PAL 16:9 (720x576) VBR, Auto Letterboxed
Audio:
Russian (Dolby AC3, 6 ch)

VTS_02 :
Play Length: 00:06:46
Video: PAL 16:9 (720x576) VBR, Auto Letterboxed
Audio:
Not specified (Dolby AC3, 2 ch)

* Menus Information *

VIDEO_TS Menu
Video:
PAL 16:9 (720x576) VBR
Auto Pan&Scan
Audio:
Not specified (Dolby AC3, 2 ch)
Russian Language Unit :
Title Menu

VTS_01 Menu
Video:
PAL 16:9 (720x576) VBR
Auto Pan&Scan
Audio:
Not specified (Dolby AC3, 6 ch)
Russian Language Unit :
Root Menu
Chapter (PTT) Menu

VTS_02 Menu
Video:
NTSC 4:3 (720x480) VBR
Auto Pan&Scan, Auto Letterboxed
Russian Language Unit :
Root Menu
Общее
Полное имя : K:Новинки 2013Molola.i.prekrasna.2013.DVD5VIDEO_TSVTS_01_1.VOB
Формат : MPEG-PS
Размер файла : 1024 Мбайт
Продолжительность : 23 м.
Режим общего битрейта : Переменный
Общий поток : 5973 Кбит/сек

Видео
Идентификатор : 224 (0xE0)
Формат : MPEG Video
Версия формата : Version 2
Профиль формата : Main@Main
Параметр BVOP формата : Да
Параметр матрицы формата : Выборочная
Параметр GOP формата : Variable
Продолжительность : 23 м.
Вид битрейта : Переменный
Битрейт : 5470 Кбит/сек
Максимальный битрейт : 9000 Кбит/сек
Ширина : 720 пикселей
Высота : 576 пикселей
Соотношение сторон : 16:9
Частота кадров : 25,000 кадров/сек
Стандарт вещания : PAL
Цветовое пространство : YUV
Субдискретизация насыщенности : 4:2:0
Битовая глубина : 8 бит
Тип развёртки : Прогрессивная
Порядок развёртки : Верхнее поле первое
Метод сжатия : С потерями
Бит/(Пиксели*Кадры) : 0.528
Временной код первого кадра : 01:00:00:00
Оригинал временного кода : Group of pictures header
Размер потока : 938 Мбайт (92%)

Аудио
Идентификатор : 189 (0xBD)-128 (0x80)
Формат : AC-3
Формат/Информация : Audio Coding 3
Расширение режима : CM (complete main)
Параметр Endianness формата : Big
Режим смешивания : DVD-Video
Продолжительность : 23 м.
Вид битрейта : Постоянный
Битрейт : 384 Кбит/сек
Каналы : 6 каналов
Расположение каналов : Front: L C R, Side: L R, LFE
Частота : 48,0 КГц
Битовая глубина : 16 бит
Метод сжатия : С потерями
Размер потока : 65,8 Мбайт (6%)










pb.wtf



Скачать Молода и прекрасна через торрент http://i58.fastpic.ru/big/2014/0202/9c/fce082adf9c2698a760b08da67f85d9c.jpg Скачать фильм Молода и прекрасна через торрент бесплантно в хорошем качестве Описание: Семнадцатилетняя Изабель погружается в бездонный мир любви, в поиски себя. Не столько из-за денег, сколько ради удовольствия, она ... 10 10 3
Info! Золотая раздача, скачанное не засчитывается.
Торрент: Зарегистрирован [2014-02-02 18:15] · скачан: 75 раз
Статус: √ проверено
Размер: 4.05 GB
Как cкачать? Как скачать Молода и прекрасна через торрент | UTorrent

28-11-2019 20:33  

Отключить всю рекламу на сайте

    Дорогой пользователь! Огромная просьба, поблагодарите релизера, оцените раздачу и оставьте свои комментарий, если Вы скачали Молода и прекрасна через торрент бесплатно! Внесите свою лепту в развитие PiratBit!
    Комментировать посты могут только пользователи прошедшие не сложную регистрацию
    Показать сообщения:    

    Молода и прекрасна через торрент
    Скачать бесплатно Молода и прекрасна
    Молода и прекрасна скачать торрент
    Молода и прекрасна смотреть онлайн
    Cкачать фильм Молода и прекрасна бесплатно
    Молода и прекрасна скачать торрент в хорошем качестве
    Молода и прекрасна смотреть онлайн бесплатно в хорошем качестве


    Вы не можете начинать темы
    Вы не можете отвечать на сообщения
    Вы не можете редактировать свои сообщения
    Вы не можете удалять свои сообщения
    Вы не можете голосовать в опросах
    Вы не можете прикреплять файлы к сообщениям
    Вы можете скачивать файлы