Ссылка на приватное зеркало нашего сайта всего за 1$. Внимание количество ограничено!!!

2 сезон

iTunes

1 сезон

1

iTunes

iTunes

iTunes

1 сезон

RePack

30

ИГРА 18+

pack

ВАЖНО

!!Акция!!

Alien_RageХит недели

RePack

MK11
pack

Забери бонус

RePack

jed

!!Акция!!

Alien_Rage

RePack

fifa19

RePack

Assassins Creed: Odyssey

RePack

NEED FOR SPEED™ PAYBACK

4 сезон

9 сезон

Бесстыжие 9 сезон

Все сериалы

все сериалы на PB.wtf

RePack

FAR CRY 5
  

Тарзан / Tarzan (Райнхард Клоосс / Reinhard Klooss) [2013 г., Мультфильм, семейный, приключения, BDRip-AVC] DUB Лицензия pb.wtf

Тарзан через торрент pb.wtf

Размер: 1.46 GB | Добавлен: 6 лет 5 мес. назад | Торрент скачан:1135 раз
Скачать  

26-04-2014 11:05 Тарзан Скачать торрент  

«Стань свидетелем возрождения легенды»
Тарзан / Tarzan
Год выпуска: 2013
Страна: Германия / Ambient Entertainment GmbH, Constantin Film Produktion GmbH
Жанр: Мультфильм, семейный, приключения
Продолжительность: 01:34:11
Перевод: Дубляж [BD RUS]
Субтитры: Нет

Режиссер: Райнхард Клоосс / Reinhard Klooss



В ролях: Келлан Латс, Спенсер Лок, Тревор Ст. Джон, Лес Бабб, Брайан Блум, Брайан Хаски, Роберт Капрон, Джейми Рэй Ньюман, Марк Деклин, Джо Осмонд

Описание: Во время крушения американского воздушного лайнера в джунглях погибли все пассажиры, выжил лишь один младенец. Он стал приемышем в стае диких обезьян, которые выкормили, вырастили его, научили выживать в этом жестком мире естественного отбора… Пришло время, и теперь мощный и ловкий, он должен защитить свой мир от врагов. Но главное — он должен снова стать человеком.

Качество: BDRip-AVC
Формат: MKV
Видео кодек: H.264
Аудио кодек: AC3
Видео: 900x378 (2,40:1), 23,976 fps, 2028 Кbps, 0.249 bit/pixel
Аудио: 48 kHz, AC3 Dolby Digital, 2/0 (L,C) ch, 192.00 kbps

Релиз группы:
Автор рипа: potroks

Общее
Уникальный идентификатор : 215075865098734401630555030857283151830 (0xA1CE1ADA20AF77E69E9F7E34167627D6)
Полное имя : Tarzan.2013.RUS.BDRip.x264.-HELLYWOOD..mkv
Формат : Matroska
Версия формата : Version 4 / Version 2
Размер файла : 1,46 Гбайт
Продолжительность : 1 ч. 34 м.
Общий поток : 2217 Кбит/сек
Название фильма : HELLYWOOD - rip by potroks
Дата кодирования : UTC 2014-04-26 09:45:40
Программа кодирования : mkvmerge v5.9.0 ('On The Loose') built on Dec 15 2012 16:39:58
Библиотека кодирования : libebml v1.3.0 + libmatroska v1.4.0

Видео
Идентификатор : 1
Формат : AVC
Формат/Информация : Advanced Video Codec
Профиль формата : High@L4.1
Параметр CABAC формата : Да
Параметр ReFrames формата : 12 кадров
Идентификатор кодека : V_MPEG4/ISO/AVC
Продолжительность : 1 ч. 34 м.
Битрейт : 2028 Кбит/сек
Ширина : 900 пикселей
Высота : 378 пикселей
Соотношение сторон : 2,40:1
Режим частоты кадров : Постоянный
Частота кадров : 23,976 кадра/сек
Цветовое пространство : YUV
Субдискретизация насыщенности : 4:2:0
Битовая глубина : 8 бит
Тип развёртки : Прогрессивная
Бит/(Пиксели*Кадры) : 0.249
Размер потока : 1,30 Гбайт (89%)
Заголовок : Tarzan
Библиотека кодирования : x264 core 130 r2273 b3065e6
Настройки программы : cabac=1 / ref=12 / deblock=1:-1:-1 / analyse=0x3:0x133 / me=umh / subme=11 / psy=1 / psy_rd=1.02:0.01 / mixed_ref=1 / me_range=32 / chroma_me=1 / trellis=2 / 8x8dct=1 / cqm=0 / deadzone=21,11 / fast_pskip=0 / chroma_qp_offset=-3 / threads=9 / lookahead_threads=6 / sliced_threads=0 / nr=0 / decimate=0 / interlaced=0 / bluray_compat=0 / constrained_intra=0 / bframes=13 / b_pyramid=2 / b_adapt=2 / b_bias=0 / direct=3 / weightb=1 / open_gop=0 / weightp=2 / keyint=250 / keyint_min=23 / scenecut=40 / intra_refresh=0 / rc_lookahead=60 / rc=2pass / mbtree=0 / bitrate=2028 / ratetol=1.0 / qcomp=0.70 / qpmin=0 / qpmax=69 / qpstep=4 / cplxblur=20.0 / qblur=0.5 / vbv_maxrate=20000 / vbv_bufsize=20000 / nal_hrd=none / ip_ratio=1.35 / pb_ratio=1.25 / aq=1:0.80
Язык : English
Default : Да
Forced : Нет

Аудио
Идентификатор : 2
Формат : AC-3
Формат/Информация : Audio Coding 3
Расширение режима : CM (complete main)
Параметр Endianness формата : Big
Идентификатор кодека : A_AC3
Продолжительность : 1 ч. 34 м.
Вид битрейта : Постоянный
Битрейт : 192 Кбит/сек
Каналы : 2 канала
Расположение каналов : Front: L R
Частота : 48,0 КГц
Битовая глубина : 16 бит
Метод сжатия : С потерями
Размер потока : 129 Мбайт (9%)
Заголовок : Dub | DD 2.0 @ 192 kbps - BD RUS
Язык : Russian
Default : Да
Forced : Нет

Меню
00:00:00.000 : en:00:00:00.000
00:07:14.017 : en:00:07:14.017
00:16:43.586 : en:00:16:43.586
00:23:57.019 : en:00:23:57.019
00:32:42.210 : en:00:32:42.210
00:39:06.302 : en:00:39:06.302
00:46:22.488 : en:00:46:22.488
00:56:07.656 : en:00:56:07.656
01:05:37.433 : en:01:05:37.433
01:14:57.827 : en:01:14:57.827
01:21:31.428 : en:01:21:31.428
01:25:21.616 : en:01:25:21.616

pb.wtf



Скачать Тарзан через торрент http://pic.kartinco.top/images/6/ytqvb.jpg Скачать фильм Тарзан через торрент бесплантно в хорошем качестве Описание: Во время крушения американского воздушного лайнера в джунглях погибли все пассажиры, выжил лишь один младенец. Он стал приемышем ... 9.4 10 21
Info! Золотая раздача, скачанное не засчитывается.
Торрент: Зарегистрирован [2014-04-26 11:05] · скачан: 1 135 раз
Статус: √ проверено
Размер: 1.46 GB
Как cкачать? Как скачать Тарзан через торрент | qTorrent

% Раздел Тема Автор DL S | L
Ultra HD (UHD: 2K, 4K, 8K) — видео сверхвысокой чёткости [ 43.48 GB ] Тарзан. Легенда / The Legend of Tarzan [2016 UHD BDRemux 2160p] DUB [] bober100 Скачать
1 | 0
Фильмы [HD 720p, 1080p] (Хороший звук DUB, MVO) [ 4.37 GB ] Тарзан. Легенда / The Legend of Tarzan [2016 BDRip 720p] DUB [] bober100 Скачать
1 | 0
Фильмы 2016 [DVDrip, WEB-DLRip, HDrip] (DUB, MVO) [ 1.46 GB ] Тарзан. Легенда / The Legend of Tarzan [2016 BDRip] DUB [ BD CEE] bober100 Скачать
1 | 0
Фильмы (Blu-ray, BD-Remux, HDDVD) [ 25.74 GB ] Тарзан. Легенда / The Legend of Tarzan [2016 Blu-Ray Remux 1080p] killermax2013 Скачать
1 | 0
Фильмы 2016 [DVDrip, WEB-DLRip, HDrip] (DUB, MVO) [ 1.53 GB ] Тарзан. Легенда / The Legend of Tarzan [2016 HDRip-AVC] killermax2013 Скачать
1 | 0
Иностранные мультфильмы [ 2.18 GB ] Тарзан / Tarzan [2013 Мультфильм BDRip-AVC] DUB potroks Скачать
1 | 0
3D Мультфильмы [ 20.98 GB ] Тарзан / Tarzan [2013 Мультфильм BDRemux ] DUB 2D 3D-Video / Ворон Скачать
1 | 0

28-11-2019 20:33  

Отключить всю рекламу на сайте

26-04-2014 11:27 Тарзан Скачать торрент  

о качествоpb.wtf



    Дорогой пользователь! Огромная просьба, поблагодарите релизера, оцените раздачу и оставьте свои комментарий, если Вы скачали Тарзан через торрент бесплатно! Внесите свою лепту в развитие PiratBit!
    Комментировать посты могут только пользователи прошедшие не сложную регистрацию
    Показать сообщения:    

    Тарзан через торрент
    Скачать бесплатно Тарзан
    Тарзан скачать торрент
    Тарзан смотреть онлайн
    Cкачать фильм Тарзан бесплатно
    Тарзан скачать торрент в хорошем качестве
    Тарзан смотреть онлайн бесплатно в хорошем качестве


    Вы не можете начинать темы
    Вы не можете отвечать на сообщения
    Вы не можете редактировать свои сообщения
    Вы не можете удалять свои сообщения
    Вы не можете голосовать в опросах
    Вы не можете прикреплять файлы к сообщениям
    Вы можете скачивать файлы