2 сезон

iTunes

MVO

1

2 сезон

iTunes

iTunes

1 сезон

RePack

30

Новинка

ВАЖНО

ИГРА 18+

pack

RePack

MK11
pack

Легкие деньги

RePack

jed

RePack

fifa19

RePack

RDR2

RePack

NEED FOR SPEED™ PAYBACK

4 сезон

9 сезон

Бесстыжие 9 сезон

Все сериалы

все сериалы на PB.wtf

RePack

FAR CRY 5

Anonymous, добрый день, мы не успеваем собрать деньги на оплату серверов за декабрь и январь, помогите нам пожалуйста в это трудное время. В качестве благодарности мы отключим Вам всю рекламу на сайте (укажите свой ник в строку Ваше имя)!

×
  
Magnet ссылка

Дворецкий / The Butler (Ли Дэниелс / Lee Daniels) [2013 г., Драма, биография, BDRip-AVC] MVO [Лицензия] pb.wtf

Дворецкий через торрент pb.wtf

Размер: 2.96 GB | Добавлен: 6 лет 7 мес. назад | Торрент скачан:1582 раза
Скачать  

24-05-2014 18:10 Дворецкий Скачать торрент  

Дворецкий / The Butler
Год выпуска: 2013
Страна: США / Laura Ziskin Productions, Salloway Rubenstein Productions, Windy Hill Pictures
Жанр: Драма, биография
Продолжительность: 02:12:00
Перевод: Профессиональный многоголосый [R5]
Субтитры: Русские, английские (Full + SDH)

Режиссер: Ли Дэниелс / Lee Daniels



В ролях: Форест Уитакер, Опра Уинфри, Джон Кьюсак, Джейн Фонда, Терренс Ховард, Кьюба Гудинг мл., Ленни Кравиц, Дэвид Ойелоуо, Ванесса Редгрейв, Алан Рикман

Описание: В фильме, основанном на статье из Washington Post, рассказывается о дворецком Юджине Аллене, служившем в Белом Доме под началом восьми разных президентов.

Качество: BDRip-AVC
Формат: MKV
Видео кодек: H.264
Аудио кодек: AC3
Видео: 1056x572 (1,85:1), 23,976 fps, 2324 Кbps, 0.160 bit/pixel
Аудио#1: 48 kHz, AC3 Dolby Digital, 3/2 (L,C,R,l,r) + LFE ch, 448.00 kbps | RUS
Аудио#2: 48 kHz, AC3 Dolby Digital, 3/2 (L,C,R,l,r) + LFE ch, 448.00 kbps | ENG

Релиз группы:
Автор рипа: potroks

Общее
Уникальный идентификатор : 239664413137366367554216054585514613782 (0xB44DAFDE59509AE9B36A251031795C16)
Полное имя : Dvoreckiy.2013.DUAL.BDRip.x264.-HELLYWOOD.mkv
Формат : Matroska
Версия формата : Version 4 / Version 2
Размер файла : 2,96 Гбайт
Продолжительность : 2 ч. 12 м.
Общий поток : 3205 Кбит/сек
Название фильма : HELLYWOOD - rip by potroks
Дата кодирования : UTC 2014-05-23 13:01:27
Программа кодирования : mkvmerge v5.9.0 ('On The Loose') built on Dec 15 2012 16:39:58
Библиотека кодирования : libebml v1.3.0 + libmatroska v1.4.0

Видео
Идентификатор : 1
Формат : AVC
Формат/Информация : Advanced Video Codec
Профиль формата : High@L4.1
Параметр CABAC формата : Да
Параметр ReFrames формата : 12 кадров
Идентификатор кодека : V_MPEG4/ISO/AVC
Продолжительность : 2 ч. 12 м.
Битрейт : 2324 Кбит/сек
Ширина : 1056 пикселей
Высота : 572 пикселя
Соотношение сторон : 1,85:1
Режим частоты кадров : Постоянный
Частота кадров : 23,976 кадра/сек
Цветовое пространство : YUV
Субдискретизация насыщенности : 4:2:0
Битовая глубина : 8 бит
Тип развёртки : Прогрессивная
Бит/(Пиксели*Кадры) : 0.160
Размер потока : 2,07 Гбайт (70%)
Заголовок : The Butler
Библиотека кодирования : x264 core 130 r2273 b3065e6
Настройки программы : cabac=1 / ref=12 / deblock=1:-3:-2 / analyse=0x3:0x133 / me=umh / subme=11 / psy=1 / psy_rd=1.03:0.00 / mixed_ref=1 / me_range=32 / chroma_me=1 / trellis=2 / 8x8dct=1 / cqm=0 / deadzone=21,11 / fast_pskip=0 / chroma_qp_offset=-2 / threads=9 / lookahead_threads=8 / sliced_threads=0 / nr=0 / decimate=0 / interlaced=0 / bluray_compat=0 / constrained_intra=0 / bframes=12 / b_pyramid=2 / b_adapt=2 / b_bias=0 / direct=3 / weightb=1 / open_gop=0 / weightp=2 / keyint=250 / keyint_min=23 / scenecut=40 / intra_refresh=0 / rc_lookahead=60 / rc=2pass / mbtree=0 / bitrate=2324 / ratetol=1.0 / qcomp=0.70 / qpmin=0 / qpmax=69 / qpstep=4 / cplxblur=20.0 / qblur=0.5 / vbv_maxrate=20000 / vbv_bufsize=25000 / nal_hrd=none / ip_ratio=1.35 / pb_ratio=1.25 / aq=1:0.70
Язык : English
Default : Да
Forced : Нет

Аудио #1
Идентификатор : 2
Формат : AC-3
Формат/Информация : Audio Coding 3
Расширение режима : CM (complete main)
Параметр Endianness формата : Big
Идентификатор кодека : A_AC3
Продолжительность : 2 ч. 12 м.
Вид битрейта : Постоянный
Битрейт : 448 Кбит/сек
Каналы : 6 каналов
Расположение каналов : Front: L C R, Side: L R, LFE
Частота : 48,0 КГц
Битовая глубина : 16 бит
Метод сжатия : С потерями
Размер потока : 423 Мбайт (14%)
Заголовок : MVO | DD 5.1 @ 448 kbps - R5
Язык : Russian
Default : Да
Forced : Нет

Аудио #2
Идентификатор : 3
Формат : AC-3
Формат/Информация : Audio Coding 3
Расширение режима : CM (complete main)
Параметр Endianness формата : Big
Идентификатор кодека : A_AC3
Продолжительность : 2 ч. 12 м.
Вид битрейта : Постоянный
Битрейт : 448 Кбит/сек
Каналы : 6 каналов
Расположение каналов : Front: L C R, Side: L R, LFE
Частота : 48,0 КГц
Битовая глубина : 16 бит
Метод сжатия : С потерями
Размер потока : 423 Мбайт (14%)
Заголовок : Original | DD 5.1 @ 448 kbps
Язык : English
Default : Нет
Forced : Нет

Текст #1
Идентификатор : 4
Формат : UTF-8
Идентификатор кодека : S_TEXT/UTF8
Идентификатор кодека/Информация : UTF-8 Plain Text
Язык : Russian
Default : Нет
Forced : Нет

Текст #2
Идентификатор : 5
Формат : UTF-8
Идентификатор кодека : S_TEXT/UTF8
Идентификатор кодека/Информация : UTF-8 Plain Text
Заголовок : Full
Язык : English
Default : Нет
Forced : Нет

Текст #3
Идентификатор : 6
Формат : UTF-8
Идентификатор кодека : S_TEXT/UTF8
Идентификатор кодека/Информация : UTF-8 Plain Text
Заголовок : SDH-Colored
Язык : English
Default : Нет
Forced : Нет

Меню
00:00:00.000 : en:(01)00:00:00:000
00:07:27.071 : en:(02)00:07:27:071
00:13:51.497 : en:(03)00:13:51:497
00:22:26.678 : en:(04)00:22:26:678
00:28:57.736 : en:(05)00:28:57:736
00:36:38.529 : en:(06)00:36:38:529
00:45:13.293 : en:(07)00:45:13:293
00:51:56.196 : en:(08)00:51:56:196
00:59:22.475 : en:(09)00:59:22:475
01:07:08.399 : en:(10)01:07:08:399
01:15:09.379 : en:(11)01:15:09:379
01:20:14.100 : en:(12)01:20:14:100
01:27:25.865 : en:(13)01:27:25:865
01:35:12.707 : en:(14)01:35:12:707
01:42:12.292 : en:(15)01:42:12:292
01:49:09.251 : en:(16)01:49:09:251
01:56:22.141 : en:(17)01:56:22:141
02:04:42.057 : en:(18)02:04:42:057
02:12:05.709 : en:(19)02:12:05:709

pb.wtf



Скачать Дворецкий через торрент http://pic.kartinco.top/images/6/clt91.jpg Скачать фильм Дворецкий через торрент бесплантно в хорошем качестве Описание: В фильме, основанном на статье из Washington Post, рассказывается о дворецком Юджине Аллене, служившем в Белом Доме под началом ... 10 10 23
Торрент: Зарегистрирован [2014-05-24 18:10] · скачан: 1 582 раз
Статус: √ проверено
Размер: 2.96 GB
Как cкачать? Как скачать Дворецкий через торрент | UTorrent

% Раздел Тема Автор DL S | L
Фильмы (DVD фильмы) [ 7.13 GB ] Дворецкий / The Butler [2013 биография DVD9] R5 voovaz Скачать
1 | 0
T Фильмы 2013 (Звук TS, Cam, VO, DVO) [ 2.05 GB ] Дворецкий / The Butler [ 2013 биография HDRip ] VO [VANO] Ворон Скачать
1 | 0
Фильмы 2001-2005 [ 1.37 GB ] Дворецкий Боб / Bob the Butler [2005 DVDRip] Trust Скачать
1 | 0

28-11-2019 20:33  

Отключить всю рекламу на сайте

25-05-2014 05:08 Дворецкий Скачать торрент  

спасибо, рекомендую. pb.wtf



27-06-2014 19:21 Дворецкий Скачать торрент  

samodyff писал(а):

спасибо, рекомендую. :respec
Посмотрю. Нужно же хоть иногда доверять людям. pb.wtf



    Дорогой пользователь! Огромная просьба, поблагодарите релизера, оцените раздачу и оставьте свои комментарий, если Вы скачали Дворецкий через торрент бесплатно! Внесите свою лепту в развитие PiratBit!
    Комментировать посты могут только пользователи прошедшие не сложную регистрацию
    Показать сообщения:    

    Дворецкий через торрент
    Скачать бесплатно Дворецкий
    Дворецкий скачать торрент
    Дворецкий смотреть онлайн
    Cкачать фильм Дворецкий бесплатно
    Дворецкий скачать торрент в хорошем качестве
    Дворецкий смотреть онлайн бесплатно в хорошем качестве


    Вы не можете начинать темы
    Вы не можете отвечать на сообщения
    Вы не можете редактировать свои сообщения
    Вы не можете удалять свои сообщения
    Вы не можете голосовать в опросах
    Вы не можете прикреплять файлы к сообщениям
    Вы можете скачивать файлы