Всегда рабочее зеркало без VPN и Proxy просто перед .vidak.icu напиши любое слово или цифру, Пример http://7413.vidak.icu

MVO

2 сезон

1 сезон

1

1 сезон

iTunes

2 сезон

13

1 сезон

Deluxe

pack

Рекомендуем

Пиратка

30

ВАЖНО

RePack

MK11

RePack

jed

RePack

fifa19

RePack

RDR2

RePack

NEED FOR SPEED™ PAYBACK

Кинопоиск HD

6 сезон

 Острые козырьки 6 сезон

Все сериалы

все сериалы на PB.wtf

RePack

FAR CRY 5

Anonymous, нам критически не хватает 5601 руб. на оплату серверов и переферии за Апрель, помоги нам пожалуйста, вся надежда только на тебя. В благодарность мы отключим тебе всю рекламу на сайте!

×
  
Magnet ссылка

Воздушный маршал / Non-Stop (Хауме Кольет-Серра / Jaume Collet-Serra) [2014, Великобритания, Франция, США, детектив, триллер, боевик, HDRip, [Дубляж- Лицензия] pb.wtf

Воздушный маршал через торрент pb.wtf

Размер: 1.37 GB | Добавлен: 7 лет 11 мес. назад | Торрент скачан:2735 раз
Смотреть онлайн Воздушный маршал | Скачать    Ребята, помогите собрать деньги на оплату серверов!!!

30-05-2014 13:13 Воздушный маршал Скачать торрент  


Воздушный маршал / Non-Stop
«Захват самолёта - это только начало»

Год выпуска: 2014
Страна:Великобритания, Франция, США
Жанр:детектив, триллер, боевик
Продолжительность:01:46:37
Перевод:Профессиональный [Дубляж- Лицензия]
Субтитры: Текст SMS переведен русскими субтитрами
Режиссер: Хауме Кольет-Серра / Jaume Collet-Serra

  • В ролях:

    Лиам Нисон (Bill Marks), Джулианна Мур (Jen Summers), Скут МакНэйри (Tom Bowen), Мишель Докери (Nancy), Нэйт Паркер (Zack White), Кори Столл (Austin Reilly), Лупита Нионго (Gwen), Омар Метуолли (Dr. Fahim Nasir), Джейсон Батлер Харнер (Kyle Rice), Лайнас Роуч (David McMillan), Ши Уигхэм (Agent Marenick), Энсон Маунт (Jack Hammond)

  • Описание:
    Межконтинентальный авиарейс. Билл Маркс, воздушный маршал, который обеспечивает безопасность пассажиров, получает сообщения с угрозами от маньяка-террориста. Преступник просчитал все ходы и подставил под обвинение самого спецагента. Теперь Маркс - цель спецслужб США. Ему остается одно: вычислить и обезвредить преступника, спасти пассажиров и свою любовь, которую он обретает на краю гибели. До взрыва остаются считанные минуты...

  • Мировая премьера:27 января 2014


      Качество: HDRip
      Формат: AVI
      Видео кодек: XviD
      Аудио кодек:AC3
      Видео: XviD, 720x304 (2.35:1), 1378 kbps, 23,976 fps, 0,263 bpp
      Аудио: AC3 / 5.1 / 48 kHz / 448 kbps / 16 bit


    Код:

    General
    Complete name                            : D:\Торенты\Non.Stop.2014.D.HDRip.1400.avi
    Format                                   : AVI
    Format/Info                              : Audio Video Interleave
    File size                                : 1.37 GiB
    Duration                                 : 1h 46mn
    Overall bit rate                         : 1 836 Kbps
    Writing application                      : VirtualDubMod 1.5.10.2 (build 2540/release)
    Writing library                          : VirtualDubMod build 2540/release

    Video
    ID                                       : 0
    Format                                   : MPEG-4 Visual
    Format profile                           : Advanced Simple@L5
    Format settings, BVOP                    : 2
    Format settings, QPel                    : No
    Format settings, GMC                     : No warppoints
    Format settings, Matrix                  : Custom
    Codec ID                                 : XVID
    Codec ID/Hint                            : XviD
    Duration                                 : 1h 46mn
    Bit rate                                 : 1 378 Kbps
    Width                                    : 720 pixels
    Height                                   : 304 pixels
    Display aspect ratio                     : 2.35:1
    Frame rate                               : 23.976 fps
    Color space                              : YUV
    Chroma subsampling                       : 4:2:0
    Bit depth                                : 8 bits
    Scan type                                : Progressive
    Compression mode                         : Lossy
    Bits/(Pixel*Frame)                       : 0.263
    Stream size                              : 1.03 GiB (75%)
    Writing library                          : XviD 1.2.1 (UTC 2008-12-04)

    Audio
    ID                                       : 1
    Format                                   : AC-3
    Format/Info                              : Audio Coding 3
    Mode extension                           : CM (complete main)
    Codec ID                                 : 2000
    Duration                                 : 1h 46mn
    Bit rate mode                            : Constant
    Bit rate                                 : 448 Kbps
    Channel(s)                               : 6 channels
    Channel positions                        : Front: L C R, Side: L R, LFE
    Sampling rate                            : 48.0 KHz
    Bit depth                                : 16 bits
    Compression mode                         : Lossy
    Stream size                              : 342 MiB (24%)
    Alignment                                : Split accross interleaves
    Interleave, duration                     : 42 ms (1.00 video frame)
    Interleave, preload duration             : 500 ms

    Скриншоты:

    Каталог Новинок (Фильмы-трейлеры, Игры, Сериалы, Мультфильмы)

    © Оформление by Raven
    pb.wtf



  • Скачать Воздушный маршал через торрент https://pic1.kartinco.top/images/61/stazu.jpg Скачать, смотреть онлайн Воздушный маршал бесплантно в хорошем качестве Описание:Межконтинентальный авиарейс. Билл Маркс, воздушный маршал, который обеспечивает безопасность пассажиров, получает сообщения с ... 9.9 10 62
    Info! Золотая раздача, скачанное не засчитывается.
    Торрент: Зарегистрирован [2014-05-30 13:13] · скачан: 2 735 раз
    Статус: √ проверено
    Размер: 1.37 GB
    Как cкачать? Как скачать Воздушный маршал через торрент | UTorrent

    % Раздел Тема Автор DL S | L
    Фильмы 2014 [DVDrip, WEB-DLRip, HDrip] [ 2.91 GB ] Воздушный маршал / Non-Stop [2014 HDRip-AVC][] vovan Скачать
    1 | 0
    Фильмы с авторской озвучкой [ 1.47 GB ] Воздушный маршал / Non-Stop [2014 HDRip] [Open Matte] [AVO] killermax2013 Скачать
    1 | 0
    Фильмы [HD 720p, 1080p] (Хороший звук DUB, MVO) [ 6.56 GB ] Воздушный маршал / Non-Stop [2014 BDRip 720p 2хAVO] _denis_100 Скачать
    1 | 0
    Фильмы 2014 [DVDrip, WEB-DLRip, HDrip] [ 2.17 GB ] Воздушный маршал / Non-Stop [2014 BDRip ] coc900 Скачать
    1 | 0
    Фильмы [HD 720p, 1080p] (Хороший звук DUB, MVO) [ 14.1 GB ] Воздушный маршал / Non-Stop [2014 BDRip 1080p ] от R.G. HD-Films Seedtank Скачать
    1 | 0
    Фильмы (Blu-ray, BD-Remux, HDDVD) [ 24.54 GB ] Воздушный маршал / Non-Stop [2014 BD-Remux ] Seedtank Скачать
    1 | 0
    Фильмы 2014 [DVDrip, WEB-DLRip, HDrip] [ 2.2 GB ] Воздушный маршал / Non-Stop [2014 BDRip-AVC] DUB potroks Скачать
    1 | 0

    28-11-2019 20:33  

    Отключить всю рекламу на сайте

    31-05-2014 07:53 Воздушный маршал Скачать торрент  

    автору спасибо , ждал перевод смсок. :smok:pb.wtf



    07-06-2014 13:25 Воздушный маршал Скачать торрент  

    Хороший фильм.pb.wtf



    12-06-2014 19:15 Воздушный маршал Скачать торрент  

    samodyff писал(а):

    автору спасибо , ждал перевод смсок. :smok:

    Так есть перевод СМС или нет?pb.wtf



    13-06-2014 05:29 Воздушный маршал Скачать торрент  

    Без перевода смс.pb.wtf



    20-06-2015 09:24 Воздушный маршал Скачать торрент  

    Понравился однозначно.... качественный боевик с интересным сюжетом, держит в напряжение до конца фильма... 8/10pb.wtf



      Дорогой пользователь! Огромная просьба, поблагодарите релизера, оцените раздачу и оставьте свои комментарий, если Вы скачали Воздушный маршал через торрент бесплатно!
      Комментировать посты могут только пользователи прошедшие не сложную регистрацию
      Показать сообщения:    

      Воздушный маршал через торрент
      Скачать бесплатно Воздушный маршал
      Воздушный маршал скачать торрент
      Воздушный маршал смотреть онлайн
      Cкачать фильм Воздушный маршал бесплатно
      Воздушный маршал скачать торрент в хорошем качестве
      Воздушный маршал смотреть онлайн бесплатно в хорошем качестве


      Вы не можете начинать темы
      Вы не можете отвечать на сообщения
      Вы не можете редактировать свои сообщения
      Вы не можете удалять свои сообщения
      Вы не можете голосовать в опросах
      Вы не можете прикреплять файлы к сообщениям
      Вы можете скачивать файлы