Всегда рабочее зеркало без VPN и Proxy просто перед .vidak.icu напиши любое слово или цифру, Пример http://fomp.vidak.icu

iTunes

2 сезон

1 сезон

1

1 сезон

iTunes

2 сезон

13

1 сезон

Deluxe

pack

Рекомендуем

Пиратка

30

ВАЖНО

RePack

MK11

RePack

jed

RePack

fifa19

RePack

RDR2

RePack

NEED FOR SPEED™ PAYBACK

Кинопоиск HD

6 сезон

 Острые козырьки 6 сезон

Все сериалы

все сериалы на PB.wtf

RePack

FAR CRY 5

Anonymous, нам критически не хватает 5601 руб. на оплату серверов и переферии за Апрель, помоги нам пожалуйста, вся надежда только на тебя. В благодарность мы отключим тебе всю рекламу на сайте!

×
  
Magnet ссылка

Кровавая месть / In the Blood (Джон Стокуэлл / John Stockwell) [2014, Великобритания, Пуэрто Рико, триллер, боевик, криминал, HDRip] DUB Лицензия pb.wtf

Кровавая месть через торрент pb.wtf

Размер: 1.37 GB | Добавлен: 7 лет 10 мес. назад | Торрент скачан:386 раз
Смотреть онлайн Кровавая месть | Скачать    Ребята, помогите собрать деньги на оплату серверов!!!

25-07-2014 19:09 Кровавая месть Скачать торрент  

Кровавая месть / In the Blood


Год выпуска: 2014
Страна: Великобритания, Пуэрто Рико
Жанр:триллер, боевик, криминал
Продолжительность:01:47:40
Перевод:Дубляж - [Лицензия]
Режиссер:Джон Стокуэлл / John Stockwell

  • В ролях:

    Джина Карано (Ava), Кэм Жиганде (Derek Grant), Исмаэль Круз (Manny), Луис Гусман (Chief Ramón Garza), Трит Уильямс (Robert Grant), Амори Ноласко (Silvio Lugo), Стивен Лэнг (Casey), Дэнни Трехо (Big Biz), Ивет Йэтс (Leta), Элоиза Мамфорд (Sandy Grant), Бен Брэй (Officer Santos), Пабло Канкуэро (Dr. Abelard)

  • Описание:
    Сильная и красивая Ава мечтала провести с мужем счастливый отпуск на райских Карибских островах на берегу океана... В одно мгновение все превратилось в ад. После загадочного исчезновения мужа Ава начинает расследование. Во что бы то ни стало, она найдет людей, которые похитили и убили ее возлюбленного. Гнев женщины в горе не знает предела...

  • Мировая премьера:4 апреля 2014


      Качество: HDRip
      Формат:AVI
      Видео кодек: XviD
      Аудио кодек:AC3
      Видео: 720x384 (1.875), 1425 kbps, 23,976 fps
      Аудио: 5.1/ 48 kHz/ 384 kbps/ AC3


    Код:

    General
    Complete name                            : D:\Торенты\Kr0vava9.Mest.2014.D.HDRip.1400MB.avi
    Format                                   : AVI
    Format/Info                              : Audio Video Interleave
    File size                                : 1.37 GiB
    Duration                                 : 1h 47mn
    Overall bit rate                         : 1 818 Kbps
    Writing application                      : VirtualDubMod 1.5.10.2 (build 2540/release)
    Writing library                          : VirtualDubMod build 2540/release

    Video
    ID                                       : 0
    Format                                   : MPEG-4 Visual
    Format profile                           : Advanced Simple@L5
    Format settings, BVOP                    : 2
    Format settings, QPel                    : No
    Format settings, GMC                     : No warppoints
    Format settings, Matrix                  : Custom
    Codec ID                                 : XVID
    Codec ID/Hint                            : XviD
    Duration                                 : 1h 47mn
    Bit rate                                 : 1 425 Kbps
    Width                                    : 720 pixels
    Height                                   : 384 pixels
    Display aspect ratio                     : 1.875
    Frame rate                               : 23.976 fps
    Color space                              : YUV
    Chroma subsampling                       : 4:2:0
    Bit depth                                : 8 bits
    Scan type                                : Progressive
    Compression mode                         : Lossy
    Bits/(Pixel*Frame)                       : 0.215
    Stream size                              : 1.07 GiB (78%)
    Writing library                          : XviD 1.2.1 (UTC 2008-12-04)

    Audio
    ID                                       : 1
    Format                                   : AC-3
    Format/Info                              : Audio Coding 3
    Mode extension                           : CM (complete main)
    Codec ID                                 : 2000
    Duration                                 : 1h 47mn
    Bit rate mode                            : Constant
    Bit rate                                 : 384 Kbps
    Channel(s)                               : 6 channels
    Channel positions                        : Front: L C R, Side: L R, LFE
    Sampling rate                            : 48.0 KHz
    Bit depth                                : 16 bits
    Compression mode                         : Lossy
    Stream size                              : 296 MiB (21%)
    Alignment                                : Split accross interleaves
    Interleave, duration                     : 42 ms (1.00 video frame)
    Interleave, preload duration             : 500 ms

    Скриншоты:

    Каталог Новинок (Фильмы-трейлеры, Игры, Сериалы, Мультфильмы)

    © Оформление by Raven
    pb.wtf



  • Скачать Кровавая месть через торрент http://i67.fastpic.ru/big/2014/0725/3c/7cf0d52117c6cad8f24a30c1a1dd8b3c.jpg Скачать, смотреть онлайн Кровавая месть бесплантно в хорошем качестве Описание:Сильная и красивая Ава мечтала провести с мужем счастливый отпуск на райских Карибских островах на берегу океана... В одно ... 9.8 10 14
    Торрент: Зарегистрирован [2014-07-25 19:09] · скачан: 386 раз
    Статус: √ проверено
    Размер: 1.37 GB
    Как cкачать? Как скачать Кровавая месть через торрент | UTorrent



    Последний раз редактировалось: Ворон (2014-07-27 18:39), всего редактировалось 1 раз

    28-11-2019 20:33  

    Отключить всю рекламу на сайте

    26-07-2014 09:27 Кровавая месть Скачать торрент  

    а тут субтитры есть на мексиканскую речьpb.wtf



      Дорогой пользователь! Огромная просьба, поблагодарите релизера, оцените раздачу и оставьте свои комментарий, если Вы скачали Кровавая месть через торрент бесплатно!
      Комментировать посты могут только пользователи прошедшие не сложную регистрацию
      Показать сообщения:    

      Кровавая месть через торрент
      Скачать бесплатно Кровавая месть
      Кровавая месть скачать торрент
      Кровавая месть смотреть онлайн
      Cкачать фильм Кровавая месть бесплатно
      Кровавая месть скачать торрент в хорошем качестве
      Кровавая месть смотреть онлайн бесплатно в хорошем качестве


      Вы не можете начинать темы
      Вы не можете отвечать на сообщения
      Вы не можете редактировать свои сообщения
      Вы не можете удалять свои сообщения
      Вы не можете голосовать в опросах
      Вы не можете прикреплять файлы к сообщениям
      Вы можете скачивать файлы