Всегда рабочее зеркало без VPN и Proxy просто перед .vidak.icu напиши любое слово или цифру, Пример http://12xl.vidak.icu

MVO

2 сезон

1 сезон

1

1 сезон

iTunes

2 сезон

13

1 сезон

Deluxe

pack

Рекомендуем

Пиратка

30

ВАЖНО

RePack

MK11

RePack

jed

RePack

fifa19

RePack

RDR2

RePack

NEED FOR SPEED™ PAYBACK

Кинопоиск HD

6 сезон

 Острые козырьки 6 сезон

Все сериалы

все сериалы на PB.wtf

RePack

FAR CRY 5

Anonymous, нам критически не хватает 5601 руб. на оплату серверов и переферии за Апрель, помоги нам пожалуйста, вся надежда только на тебя. В благодарность мы отключим тебе всю рекламу на сайте!

×
  
Magnet ссылка

Кровавая месть / In the Blood (Джон Стокуэлл) [2014 г., Триллер, боевик, криминал, Blu-ray, Дубляж + Оригинал] pb.wtf

Кровавая месть через торрент pb.wtf

Качают: 1 [ 0 KB/s ]
Размер: 22.8 GB | Добавлен: 7 лет 9 мес. назад | Торрент скачан:16 раз
Смотреть онлайн Кровавая месть | Скачать    Ребята, помогите собрать деньги на оплату серверов!!!

27-07-2014 12:35 Кровавая месть Скачать торрент  

Кровавая месть / In the Blood
Год выпуска: 2014
Страна: Великобритания
Жанр: Триллер, боевик, криминал
Продолжительность: 01:47:40
Перевод: Дубляж + Оригинал
Субтитры: Русские, английские, испанские

Режиссер: Джон Стокуэлл

В ролях: Джина Карано, Кэм Жиганде, Исмаэль Круз, Луис Гусман, Дэнни Трехо, Трит Уильямс, Амори Ноласко, Стивен Лэнг, Ивет Йэтс, Элоиза Мамфорд

Описание: Сильная и красивая Ава мечтала провести с мужем счастливый отпуск на райских Карибских островах на берегу океана… В одно мгновение все превратилось в ад. После загадочного исчезновения мужа Ава начинает расследование. Во что бы то ни стало, она найдет людей, которые похитили и убили ее возлюбленного. Гнев женщины в горе не знает предела…

Качество: Blu-ray
Формат: BDMV
Видео кодек: H.264
Аудио кодек: AC3
Видео: MPEG-4 AVC, (1920x1080),20 919 Кбит/с, 23.976 кадра/сек
Аудио#1: AC-3 6 ch,384 kbps (Rus) 48.0 KHz Дубляж
Аудио#2: AC-3 6 ch,640 kbps (Eng) 48.0 KHz Оригинал
скриншот   скриншот   скриншот  

Тип потока: Видео
Длительность: 01:47:40
Кодек: AVC
Кодек/описание: Advanced Video Codec
Кодек/профиль: High@L4.1
Кодек/ID: 27
Кодек/CABAC: Yes
Кодек/ReFrames: 2 frames
Размеры изображения: 1920 x 1080 (16:9)
Частота кадров: 23.976 fps
Размер потока: 18.1 GiB (92%)
Битрейт: 24.1 Mbps
Битрейт/тип: VBR
Цветовое пространство: YUV
Тип развёртки: Progressive
Колориметрия: 4:2:0
Глубина: 8 bits
:
Тип потока: Звук #1
Длительность: 01:47:40.480
Кодек: AC-3
Кодек/описание: Audio Coding 3
Кодек/ID: 129
Частота дискретизации: 48.0 KHz
Каналов: 6 channels
Битрейт: 384 Kbps
Битрейт/тип: Constant
Размер потока: 296 MiB (1%)
Глубина: 16 bits
Метод сжатия: Lossy
:
Тип потока: Звук #2
Длительность: 01:47:40.449
Кодек: TrueHD / AC-3
Режим смешивания: Stream extension
Кодек/ID: 131
Частота дискретизации: 48.0 KHz
Каналов: 6 channels
Битрейт: 640 Kbps
Битрейт/тип: Variable / Constant
Размер потока: 493 MiB (2%)
Глубина: 16 bits
:
Тип потока: Субтитры #1
Формат: PGS
:
Тип потока: Субтитры #2
Формат: PGS
:
Тип потока: Субтитры #3
Формат: PGS

pb.wtf



Скачать Кровавая месть через торрент https://pic1.kartinco.top/images/61/r4de4.jpg Скачать, смотреть онлайн Кровавая месть бесплантно в хорошем качестве Описание: Сильная и красивая Ава мечтала провести с мужем счастливый отпуск на райских Карибских островах на берегу океана… В одно ... 9.8 10 6
Info! Золотая раздача, скачанное не засчитывается.
Торрент: Зарегистрирован [2014-07-27 12:35] · скачан: 16 раз
Статус: √ проверено
Размер: 22.8 GB
Как cкачать? Как скачать Кровавая месть через торрент | UTorrent

% Раздел Тема Автор DL S | L
Фильмы с авторской озвучкой [ 1.46 GB ] Кровавая месть / In the Blood [2014 HDRip] [AVO] killermax2013 Скачать
1 | 0
Фильмы 2014 [DVDrip, WEB-DLRip, HDrip] [ 2.18 GB ] Кровавая месть / In the Blood [2014 Пуэрто Рико BDRip-AVC] Dub + Original + Sub sokol_ok Скачать
2 | 0
Фильмы 2014 [DVDrip, WEB-DLRip, HDrip] [ 1.79 GB ] Кровавая месть / In the Blood [2014 HDRip-AVC [] От R.G. PiratFilms White Smoke Скачать
1 | 0
Фильмы 2014 [DVDrip, WEB-DLRip, HDrip] [ 1.45 GB ] Кровавая месть / In the Blood [2014 Пуэрто Рико BDRip-AVC] Dub + Original + Sub sokol_ok Скачать
2 | 0
Фильмы 2014 [DVDrip, WEB-DLRip, HDrip] [ 747 MB ] Кровавая месть / In the Blood [2014 Пуэрто Рико BDRip-AVC] Dub + Sub sokol_ok Скачать
2 | 0
Фильмы 2014 [DVDrip, WEB-DLRip, HDrip] [ 1.37 GB ] Кровавая месть / In the Blood [2014 Пуэрто Рико HDRip] DUB Ворон Скачать
1 | 0

28-11-2019 20:33  

Отключить всю рекламу на сайте

    Дорогой пользователь! Огромная просьба, поблагодарите релизера, оцените раздачу и оставьте свои комментарий, если Вы скачали Кровавая месть через торрент бесплатно!
    Комментировать посты могут только пользователи прошедшие не сложную регистрацию
    Показать сообщения:    

    Кровавая месть через торрент
    Скачать бесплатно Кровавая месть
    Кровавая месть скачать торрент
    Кровавая месть смотреть онлайн
    Cкачать фильм Кровавая месть бесплатно
    Кровавая месть скачать торрент в хорошем качестве
    Кровавая месть смотреть онлайн бесплатно в хорошем качестве


    Вы не можете начинать темы
    Вы не можете отвечать на сообщения
    Вы не можете редактировать свои сообщения
    Вы не можете удалять свои сообщения
    Вы не можете голосовать в опросах
    Вы не можете прикреплять файлы к сообщениям
    Вы можете скачивать файлы