Ссылка на приватное зеркало нашего сайта всего за 1$. Внимание количество ограничено!!!

2 сезон

iTunes

1 сезон

1

2 сезон

2 сезон

iTunes

1 сезон

RePack

30

Новинка

ВАЖНО

ИГРА 18+

pack

RePack

MK11
pack

Забери бонус

RePack

jed

!!Акция!!

Alien_Rage

RePack

fifa19

RePack

Assassins Creed: Odyssey

RePack

NEED FOR SPEED™ PAYBACK

4 сезон

9 сезон

Бесстыжие 9 сезон

Все сериалы

все сериалы на PB.wtf

RePack

FAR CRY 5
  

Я очень возбужден / Los amantes pasajeros (Педро Альмодовар / Pedro Almodóvar) [ 2013 , Испания , комедия , BD Remux 1080p ] DUB |лицензия| pb.wtf

Я очень возбужден через торрент pb.wtf

Размер: 16.69 GB | Добавлен: 7 лет 4 мес. назад | Торрент скачан:118 раз
Скачать  

20-07-2013 20:10 Я очень возбужден Скачать торрент  

Я очень возбужден / Los amantes pasajeros

«Всё прекрасно! Падаем...»

  • Год выпуска:2013
  • Страна:Испания
  • Жанр:комедия
  • Продолжительность: 01:30:19
  • Перевод:Профессиональный (полное дублирование) |Лицензия|

  • Субтитры: Нет
    • Режиссер:Педро Альмодовар / Pedro Almodóvar

  • В ролях:Хавьер Камара (Joserra), Сесилия Рот (Norma Boss), Лола Дуэньяс (Bruna), Карлос Аресес (Fajas), Рауль Аревало (Ulloa), Хосе Луис Торрихо (Sr. Más), Антонио де ла Торре (Álex Acero), Уго Силва (Benito Morón), Гильермо Толедо (Ricardo Galán), Хосе Мария Язпик (Infante), Бланка Суарес (Ruth), Мигель Анхель Сильвестре (Novio)
    • Описание:
      Рейс лайнера, совершающего перелет в Мексику, начался как обычно: пассажиры пристегнули ремни, а командир корабля, включив автопилот, спокойно уснул. Но прямо над океаном оказалось, что самолет неисправен, исчезает интернет, и все гаджеты разом выходят из строя. Всех охватывает страх, ужас, отчаяние. Беспомощные пассажиры и экипаж, оказавшись пред лицом гибели, наконец-то должны стать сами собой. Так что несчастным на борту падающего самолета не остается ничего, как только петь и танцевать вслед за веселыми стюардами.

  • Рейтинг
    kinopoisk.ru: 6.800 (1890)
    imdb.com: 5.70 (4 069)
    MPAA: R - Лицам до 17 лет обязательно присутствие взрослого
    • Качество:BD Remux 1080p
    • Формат:MKV
    • Видео кодек: AVC
    • Аудио кодек:DTS- AC3
    • Видео: AVC, 1920x1080 (16:9), 24168 kbps, 23,976 fps, 0,486 bpp
    • Аудио №1: русский / DTS-HD / 5.1 / 48 kHz / 1560 kbps / 16 bit (Core: 5.1 / 48 kHz / 1510 kbps / 16 bit) ||
    • Аудио №2: русский / AC3 / 2.0 / 48 kHz / 192 kbps / 16 bit ||

    General
    Unique ID : 252093723003432070405911196869824748518 (0xBDA77C2876E0393C9BA1ABB78B4E1BE6)
    Complete name : D:ТорентыYa.ochen.vozbujden.2013.D.BDRemux.1080p.mkv
    Format : Matroska
    Format version : Version 4 / Version 2
    File size : 16.7 GiB
    Duration : 1h 30mn
    Overall bit rate mode : Variable
    Overall bit rate : 26.4 Mbps
    Encoded date : UTC 2013-07-19 17:37:24
    Writing application : mkvmerge v6.1.0 ('Old Devil') built on Mar 2 2013 14:32:37
    Writing library : libebml v1.3.0 + libmatroska v1.4.0

    Video
    ID : 1
    Format : AVC
    Format/Info : Advanced Video Codec
    Format profile : High@L4.1
    Format settings, CABAC : Yes
    Format settings, ReFrames : 4 frames
    Format settings, GOP : M=3, N=18
    Codec ID : V_MPEG4/ISO/AVC
    Duration : 1h 30mn
    Bit rate mode : Variable
    Bit rate : 24.2 Mbps
    Maximum bit rate : 37.0 Mbps
    Width : 1 920 pixels
    Height : 1 080 pixels
    Display aspect ratio : 16:9
    Frame rate : 23.976 fps
    Standard : NTSC
    Color space : YUV
    Chroma subsampling : 4:2:0
    Bit depth : 8 bits
    Scan type : Progressive
    Bits/(Pixel*Frame) : 0.486
    Stream size : 15.2 GiB (91%)
    Default : Yes
    Forced : No
    Color primaries : BT.709-5, BT.1361, IEC 61966-2-4, SMPTE RP177
    Transfer characteristics : BT.709-5, BT.1361
    Matrix coefficients : BT.709-5, BT.1361, IEC 61966-2-4 709, SMPTE RP177

    Audio #1
    ID : 2
    Format : DTS
    Format/Info : Digital Theater Systems
    Format profile : MA / Core
    Codec ID : A_DTS
    Duration : 1h 30mn
    Bit rate mode : Variable
    Bit rate : 1 561 Kbps / 1 510 Kbps
    Channel(s) : 6 channels
    Channel positions : Front: L C R, Side: L R, LFE
    Sampling rate : 48.0 KHz
    Bit depth : 16 bits
    Compression mode : Lossless / Lossy
    Language : Russian
    Default : Yes
    Forced : No

    Audio #2
    ID : 3
    Format : AC-3
    Format/Info : Audio Coding 3
    Mode extension : CM (complete main)
    Codec ID : A_AC3
    Duration : 1h 30mn
    Bit rate mode : Constant
    Bit rate : 192 Kbps
    Channel(s) : 2 channels
    Channel positions : Front: L R
    Sampling rate : 48.0 KHz
    Bit depth : 16 bits
    Compression mode : Lossy
    Stream size : 124 MiB (1%)
    Language : Russian
    Default : No
    Forced : No

    Menu
    00:00:00.000 : en:00:00:00.000
    00:06:35.520 : en:00:06:35.520
    00:10:15.782 : en:00:10:15.782
    00:15:57.248 : en:00:15:57.248
    00:21:09.101 : en:00:21:09.101
    00:27:09.169 : en:00:27:09.169
    00:32:07.259 : en:00:32:07.259
    00:40:24.672 : en:00:40:24.672
    00:48:28.531 : en:00:48:28.531
    00:52:06.874 : en:00:52:06.874
    00:58:32.759 : en:00:58:32.759
    01:03:58.585 : en:01:03:58.585
    01:08:45.747 : en:01:08:45.747
    01:14:06.442 : en:01:14:06.442
    01:21:01.982 : en:01:21:01.982
    01:25:20.324 : en:01:25:20.324

    © Оформление by Vetalpb.wtf



  • Скачать Я очень возбужден через торрент http://i6.imageban.ru/out/2013/07/21/ce65d8099e3ffda82e4ab062003b1072.jpg Скачать фильм Я очень возбужден через торрент бесплантно в хорошем качестве Описание:Рейс лайнера, совершающего перелет в Мексику, начался как обычно: пассажиры пристегнули ремни, а командир корабля, включив ... 8.8 10 8
    Info! Золотая раздача, скачанное не засчитывается.
    Торрент: Зарегистрирован [2013-07-20 20:10] · скачан: 118 раз
    Статус: √ проверено
    Размер: 16.69 GB
    Как cкачать? Как скачать Я очень возбужден через торрент | qTorrent

    28-11-2019 20:33  

    Отключить всю рекламу на сайте

    20-07-2013 21:03 Я очень возбужден Скачать торрент  

    Чуть поменьше сделаешь рип? например 720рpb.wtf



    21-07-2013 13:24 Я очень возбужден Скачать торрент  

    horton2011
    Окpb.wtf



    23-07-2013 14:16 Я очень возбужден Скачать торрент  

    пидо.ас режисёр снял пидо...стичный фильм про пидо.асов, жуткая ху.ня получилась, а чего от пидо..ов ожидать.
    Прошу прощения за грубость, но слов других этот педосюжет не заслуживает.pb.wtf



      Прощаем.Вуал., выдал Ворон
      Дорогой пользователь! Огромная просьба, поблагодарите релизера, оцените раздачу и оставьте свои комментарий, если Вы скачали Я очень возбужден через торрент бесплатно! Внесите свою лепту в развитие PiratBit!
      Комментировать посты могут только пользователи прошедшие не сложную регистрацию
      Показать сообщения:    

      Я очень возбужден через торрент
      Скачать бесплатно Я очень возбужден
      Я очень возбужден скачать торрент
      Я очень возбужден смотреть онлайн
      Cкачать фильм Я очень возбужден бесплатно
      Я очень возбужден скачать торрент в хорошем качестве
      Я очень возбужден смотреть онлайн бесплатно в хорошем качестве


      Вы не можете начинать темы
      Вы не можете отвечать на сообщения
      Вы не можете редактировать свои сообщения
      Вы не можете удалять свои сообщения
      Вы не можете голосовать в опросах
      Вы не можете прикреплять файлы к сообщениям
      Вы можете скачивать файлы