2 сезон

iTunes

MVO

1

2 сезон

iTunes

iTunes

1 сезон

RePack

30

Ultimate

ВАЖНО

ИГРА 18+

pack

RePack

MK11
pack

Легкие деньги

RePack

jed

RePack

fifa19

RePack

RDR2

RePack

NEED FOR SPEED™ PAYBACK

4 сезон

9 сезон

Бесстыжие 9 сезон

Все сериалы

все сериалы на PB.wtf

RePack

FAR CRY 5

Anonymous, добрый вечер, мы не успеваем собрать деньги на оплату серверов за декабрь и январь, помогите нам пожалуйста в это трудное время. В качестве благодарности мы отключим Вам всю рекламу на сайте (укажите свой ник в строку Ваше имя)!

×
  
Magnet ссылка

Элитное общество / The Bling Ring (София Коппола / Sofia Coppola) [2013 г., Драма, криминал, BDRip-AVC, Дубляж, Лицензия] pb.wtf

Элитное общество через торрент pb.wtf

Размер: 1.45 GB | Добавлен: 6 лет 9 мес. назад | Торрент скачан:283 раза
Скачать  

08-09-2013 14:23 Элитное общество Скачать торрент  

Элитное общество / The Bling Ring
Год выпуска: 2013
Страна: США, Великобритания, Франция, Германия, Япония / American Zoetrope, NALA Films LLC, Pathé Distribution, Studio Canal, Tobis, Tohokushinsha Film Corp.
Жанр: Драма, криминал,
Продолжительность: 01:30:33
Перевод: Дубляж, Лицензия
Субтитры: Английские

Режиссер: София Коппола / Sofia Coppola

Бюджет: $20 000 000
Премьера в мире: 16 мая 2013



В ролях: Израэль Бруссар, Кэти Чанг, Таисса Фармига, Клер Элис Жюльен, Джорджия Рок, Эмма Уотсон, Лесли Манн, Карлос Миранда, Гэвин Россдэйл, Стэйси Эдвардс,

Описание: В поисках адреналина и приключений пятеро отчаянных подростков ради прикола стали навещать богатые особняки в окрестностях Голливуда. Наведываясь в гости к Линдси Лохан, Орландо Блуму, Пэрис Хилтон и другим голливудским звездам, девушки, конечно, больше интересовались дизайнерской одеждой и драгоценностями, а юноши — просто деньгами. Совершив десять краж со взломом, ребятки награбили больше трех миллионов долларов…

Качество: BDRip-AVC [THE_BLING_RING_2013_REMUX_HDCLUB]
Формат: MKV
Видео кодек: H.264
Аудио кодек: AC3
Видео: 960x518 (1,85:1), 23,976 fps, 1537 Кbps, 0.129 bit/pixel
Аудио#1: 48 kHz, AC3 Dolby Digital, 3/2 (L,C,R,l,r) + LFE ch, 384.00 kbps | RUS
Аудио#2: 48 kHz, AC3 Dolby Digital, 3/2 (L,C,R,l,r) + LFE ch, 384.00 kbps | ENG

Релиз группы:
Автор рипа: potroks





Общее
Уникальный идентификатор : 205398031497395153884106457681227301269 (0x9A8638D0EC216544972BD7F2171A4195)
Полное имя : Elitnoje.Obwhestvo.2013.DUAL.BDRip.x264.-HELLYWOOD.mkv
Формат : Matroska
Версия формата : Version 4 / Version 2
Размер файла : 1,45 Гбайт
Продолжительность : 1 ч. 30 м.
Общий поток : 2300 Кбит/сек
Название фильма : HELLYWOOD - rip by potroks
Дата кодирования : UTC 2013-09-06 12:18:01
Программа кодирования : mkvmerge v5.9.0 ('On The Loose') built on Dec 15 2012 16:39:58
Библиотека кодирования : libebml v1.3.0 + libmatroska v1.4.0

Видео
Идентификатор : 1
Формат : AVC
Формат/Информация : Advanced Video Codec
Профиль формата : High@L4.1
Параметр CABAC формата : Да
Параметр ReFrames формата : 12 кадров
Идентификатор кодека : V_MPEG4/ISO/AVC
Продолжительность : 1 ч. 30 м.
Битрейт : 1537 Кбит/сек
Ширина : 960 пикселей
Высота : 518 пикселей
Соотношение сторон : 1,85:1
Режим частоты кадров : Постоянный
Частота кадров : 23,976 кадра/сек
Цветовое пространство : YUV
Субдискретизация насыщенности : 4:2:0
Битовая глубина : 8 бит
Тип развёртки : Прогрессивная
Бит/(Пиксели*Кадры) : 0.129
Размер потока : 963 Мбайт (65%)
Заголовок : The Bling Ring
Библиотека кодирования : x264 core 130 r2273 b3065e6
Настройки программы : cabac=1 / ref=12 / deblock=1:-3:3 / analyse=0x3:0x133 / me=umh / subme=11 / psy=1 / psy_rd=1.04:0.00 / mixed_ref=1 / me_range=48 / chroma_me=1 / trellis=2 / 8x8dct=1 / cqm=0 / deadzone=21,11 / fast_pskip=0 / chroma_qp_offset=-2 / threads=8 / lookahead_threads=2 / sliced_threads=0 / nr=0 / decimate=1 / interlaced=0 / bluray_compat=0 / constrained_intra=0 / bframes=13 / b_pyramid=2 / b_adapt=2 / b_bias=0 / direct=3 / weightb=1 / open_gop=0 / weightp=2 / keyint=250 / keyint_min=23 / scenecut=40 / intra_refresh=0 / rc_lookahead=60 / rc=2pass / mbtree=0 / bitrate=1537 / ratetol=1.0 / qcomp=0.70 / qpmin=0 / qpmax=69 / qpstep=4 / cplxblur=20.0 / qblur=0.5 / vbv_maxrate=20000 / vbv_bufsize=20000 / nal_hrd=none / ip_ratio=1.35 / pb_ratio=1.25 / aq=1:0.80
Язык : English
Default : Да
Forced : Нет

Аудио #1
Идентификатор : 2
Формат : AC-3
Формат/Информация : Audio Coding 3
Расширение режима : CM (complete main)
Параметр Endianness формата : Big
Идентификатор кодека : A_AC3
Продолжительность : 1 ч. 30 м.
Вид битрейта : Постоянный
Битрейт : 384 Кбит/сек
Каналы : 6 каналов
Расположение каналов : Front: L C R, Side: L R, LFE
Частота : 48,0 КГц
Битовая глубина : 16 бит
Метод сжатия : С потерями
Размер потока : 249 Мбайт (17%)
Заголовок : Dub | DD 5.1 @ 384 kbps - R5
Язык : Russian
Default : Да
Forced : Да

Аудио #2
Идентификатор : 3
Формат : AC-3
Формат/Информация : Audio Coding 3
Расширение режима : CM (complete main)
Параметр Endianness формата : Big
Идентификатор кодека : A_AC3
Продолжительность : 1 ч. 30 м.
Вид битрейта : Постоянный
Битрейт : 384 Кбит/сек
Каналы : 6 каналов
Расположение каналов : Front: L C R, Side: L R, LFE
Частота : 48,0 КГц
Битовая глубина : 16 бит
Метод сжатия : С потерями
Размер потока : 249 Мбайт (17%)
Заголовок : Original | DD 5.1 @ 384 kbps
Язык : English
Default : Нет
Forced : Нет

Текст
Идентификатор : 4
Формат : UTF-8
Идентификатор кодека : S_TEXT/UTF8
Идентификатор кодека/Информация : UTF-8 Plain Text
Язык : English
Default : Нет
Forced : Нет

pb.wtf



Скачать Элитное общество через торрент http://uploadpic.ru/img/2013-09/08/spyw0ryrnyeu7251py619i13u.png Скачать фильм Элитное общество через торрент бесплантно в хорошем качестве Описание: В поисках адреналина и приключений пятеро отчаянных подростков ради прикола стали навещать богатые особняки в окрестностях ... 8.2 10 21
Торрент: Зарегистрирован [2014-03-20 21:10] · скачан: 283 раз
Статус: √ проверено
Размер: 1.45 GB
Как cкачать? Как скачать Элитное общество через торрент | UTorrent

% Раздел Тема Автор DL S | L
Фильмы 2013 [DVDrip, WEB-DLRip, HDrip] [ 743 MB ] Элитное общество / The Bling Ring [2013 BDRip-AVC] Dub () sokol_ok Скачать
2 | 0
Фильмы [HD 720p, 1080p] (Хороший звук DUB, MVO) [ 4.61 GB ] Элитное общество / The Bling Ring [2013 Германия Япония BDRip 720p [лицензия] Ворон Скачать
1 | 0
Фильмы [HD 720p, 1080p] (Хороший звук DUB, MVO) [ 6.79 GB ] Элитное общество / The Bling Ring [2013 Германия Япония BDRip 1080p [лицензия] Ворон Скачать
1 | 0
Фильмы 2013 [DVDrip, WEB-DLRip, HDrip] [ 2.11 GB ] Элитное общество / The Bling Ring [2013 BDRip ] Tipok_dv Скачать
1 | 0
Фильмы (DVD фильмы) [ 4.09 GB ] Элитное общество / The Bling Ring [2013 DVD5] R5 voovaz Скачать
1 | 0
Фильмы 2013 [DVDrip, WEB-DLRip, HDrip] [ 745 MB ] Элитное общество / The Bling Ring [2013 Германия Япония DVDRip [ лицензия ] ] Ворон Скачать
1 | 0


Последний раз редактировалось: potroks (2013-09-08 15:27), всего редактировалось 1 раз

28-11-2019 20:33  

Отключить всю рекламу на сайте

    Дорогой пользователь! Огромная просьба, поблагодарите релизера, оцените раздачу и оставьте свои комментарий, если Вы скачали Элитное общество через торрент бесплатно! Внесите свою лепту в развитие PiratBit!
    Комментировать посты могут только пользователи прошедшие не сложную регистрацию
    Показать сообщения:    

    Элитное общество через торрент
    Скачать бесплатно Элитное общество
    Элитное общество скачать торрент
    Элитное общество смотреть онлайн
    Cкачать фильм Элитное общество бесплатно
    Элитное общество скачать торрент в хорошем качестве
    Элитное общество смотреть онлайн бесплатно в хорошем качестве


    Вы не можете начинать темы
    Вы не можете отвечать на сообщения
    Вы не можете редактировать свои сообщения
    Вы не можете удалять свои сообщения
    Вы не можете голосовать в опросах
    Вы не можете прикреплять файлы к сообщениям
    Вы можете скачивать файлы