2 сезон

iTunes

1 сезон

1

iTunes

iTunes

iTunes

1 сезон

RePack

30

ИГРА 18+

pack

ВАЖНО

!!Акция!!

Alien_RageХит недели

RePack

MK11
pack

Забери бонус

RePack

jed

!!Акция!!

Alien_Rage

RePack

fifa19

RePack

Assassins Creed: Odyssey

RePack

NEED FOR SPEED™ PAYBACK

4 сезон

9 сезон

Бесстыжие 9 сезон

Все сериалы

все сериалы на PB.wtf

RePack

FAR CRY 5
  

Парижский блюз / Paris Blues (Мартин Ритт) [1961г., драма, мелодрама, музыка, BDRip 720p] DVO pb.wtf

Парижский блюз через торрент pb.wtf

Размер: 4.44 GB | Добавлен: 6 лет 1 мес. назад | Торрент скачан:7 раз
Скачать  

19-09-2014 13:17 Парижский блюз Скачать торрент  

Парижский блюз / Paris Blues
Релиз от: msltel

Год выпуска: 1961
Страна: США
Жанр: драма, мелодрама, музыка
Продолжительность: 01:39:00
Перевод: Профессиональный двухголосый
Субтитры: английские

Режиссёр: Мартин Ритт

В ролях: Пол Ньюман, Джоэнн Вудворд, Сидни Пуатье, Луи Армстронг, Дайэнн Кэррол, Андре Люге, Мари Верзини, Мусташ, Аарон Бриджерс, Серж Реджани, Роже Блен, Шарль Буйо, Элен Дьедонне

Описание: В Париж, город мечты и соблазнов, приезжают отдохнуть две молодые учительницы-американки. Они знакомятся с двумя джазовыми музыкантами, тоже американцами, но уже давно осевшими в Париже и даже сколотившими свой собственный ансамбль. Молодые люди начинают ухаживать за очаровательными девушками, их романы бурно развиваются, но время неумолимо, отпуск заканчивается, и необходимо сделать решающий выбор в своей жизни. Что одержит верх – музыка или любовь? Вместе с известными актерами Полом Ньюманом и Сидни Пуатье в картине «Парижский блюз» снялся великий Луи Армстронг, украсивший фильм не только волшебной музыкой, но и своей актёрской игрой.



Качество: BDRip 720p [Исходник от Sergei7721] Сравнение с исходником
Формат: MKV
Видео кодек: H.264
Аудио кодек: AC3
Видео: 1200x720, 5911 kbps, 23.976 кадра/сек
Аудио 1: русский, AC3, 192 kbps, 2 ch, 48 kHz [Профессиональный двухголосый]
Аудио 2: английский, AC3, 192 kbps, 2 ch, 48 kHz [Оригинал]
Оскар, 1962 год
Номинации (1):
Лучший саундтрек для музыкальных картин
Общее
Уникальный идентификатор : 213436417894124551677836449961556513168 (0xA0925BDD3BC1F19BB1F0E08130CB1190)
Полное имя : D:VideoParigskij bljuz.1961.BDRip.720p.mkv
Формат : Matroska
Версия формата : Version 4 / Version 2
Размер файла : 4,44 Гбайт
Продолжительность : 1 ч. 39 м.
Общий поток : 6423 Кбит/сек
Дата кодирования : UTC 2014-08-10 12:02:10
Программа кодирования : mkvmerge v6.9.1 ('Blue Panther') 64bit built on Apr 18 2014 18:23:38
Библиотека кодирования : libebml v1.3.0 + libmatroska v1.4.1

Видео
Идентификатор : 1
Формат : AVC
Формат/Информация : Advanced Video Codec
Профиль формата : High@L4.1
Параметр CABAC формата : Да
Параметр ReFrames формата : 9 кадров
Идентификатор кодека : V_MPEG4/ISO/AVC
Продолжительность : 1 ч. 39 м.
Битрейт : 5911 Кбит/сек
Ширина : 1200 пикселей
Высота : 720 пикселей
Соотношение сторон : 1,667
Режим частоты кадров : Постоянный
Частота кадров : 23,976 кадра/сек
Цветовое пространство : YUV
Субдискретизация насыщенности : 4:2:0
Битовая глубина : 8 бит
Тип развёртки : Прогрессивная
Бит/(Пиксели*Кадры) : 0.285
Размер потока : 4,09 Гбайт (92%)
Заголовок : BDRip -- STarankov
Библиотека кодирования : x264 core 142 r2431 ac76440
Настройки программы : cabac=1 / ref=9 / deblock=1:-1:-1 / analyse=0x3:0x113 / me=umh / subme=10 / psy=1 / psy_rd=1.00:0.15 / mixed_ref=1 / me_range=32 / chroma_me=1 / trellis=2 / 8x8dct=1 / cqm=0 / deadzone=21,11 / fast_pskip=0 / chroma_qp_offset=-3 / threads=6 / lookahead_threads=1 / sliced_threads=0 / nr=0 / decimate=1 / interlaced=0 / bluray_compat=0 / constrained_intra=0 / bframes=8 / b_pyramid=2 / b_adapt=2 / b_bias=0 / direct=1 / weightb=1 / open_gop=0 / weightp=2 / keyint=230 / keyint_min=23 / scenecut=40 / intra_refresh=0 / rc_lookahead=40 / rc=crf / mbtree=0 / crf=19.5 / qcomp=0.60 / qpmin=0 / qpmax=69 / qpstep=4 / vbv_maxrate=40000 / vbv_bufsize=50000 / crf_max=0.0 / nal_hrd=none / filler=0 / ip_ratio=1.40 / pb_ratio=1.30 / aq=1:1.00
Язык : English
Default : Да
Forced : Нет

Аудио #1
Идентификатор : 2
Формат : AC-3
Формат/Информация : Audio Coding 3
Расширение режима : CM (complete main)
Параметр Endianness формата : Big
Идентификатор кодека : A_AC3
Продолжительность : 1 ч. 39 м.
Вид битрейта : Постоянный
Битрейт : 192 Кбит/сек
Каналы : 2 канала
Расположение каналов : Front: L R
Частота : 48,0 КГц
Битовая глубина : 16 бит
Метод сжатия : С потерями
Размер потока : 136 Мбайт (3%)
Заголовок : DVO
Язык : Russian
Default : Да
Forced : Нет

Аудио #2
Идентификатор : 3
Формат : AC-3
Формат/Информация : Audio Coding 3
Расширение режима : CM (complete main)
Параметр Endianness формата : Big
Идентификатор кодека : A_AC3
Продолжительность : 1 ч. 39 м.
Вид битрейта : Постоянный
Битрейт : 192 Кбит/сек
Каналы : 2 канала
Расположение каналов : Front: L R
Частота : 48,0 КГц
Битовая глубина : 16 бит
Метод сжатия : С потерями
Размер потока : 136 Мбайт (3%)
Заголовок : Original
Язык : English
Default : Нет
Forced : Нет

Текст
Идентификатор : 4
Формат : UTF-8
Идентификатор кодека : S_TEXT/UTF8
Идентификатор кодека/Информация : UTF-8 Plain Text
Заголовок : английский
Язык : English
Default : Нет
Forced : Нет

---[Information] [10.08.2014 10:56:21] raw [info]: 1200x720p 1:1 @ 24000/1001 fps (cfr)
---[Information] [10.08.2014 10:56:21] x264 [info]: using SAR=1/1
---[Information] [10.08.2014 10:56:21] x264 [info]: using cpu capabilities: MMX2 SSE2Fast SSSE3 SSE4.2
---[Information] [10.08.2014 10:56:21] x264 [info]: profile High, level 4.1
---[Information] [10.08.2014 18:52:55] x264 [info]: frame I:1038 Avg QP:21.08 size:105987
---[Information] [10.08.2014 18:52:55] x264 [info]: frame P:24974 Avg QP:22.44 size: 52974
---[Information] [10.08.2014 18:52:55] x264 [info]: frame B:116428 Avg QP:24.12 size: 26197
---[Information] [10.08.2014 18:52:55] x264 [info]: consecutive B-frames: 0.9% 0.5% 1.8% 11.3% 14.5% 45.2% 10.1% 4.4% 11.2%
---[Information] [10.08.2014 18:52:55] x264 [info]: mb I I16..4: 5.7% 81.5% 12.8%
---[Information] [10.08.2014 18:52:55] x264 [info]: mb P I16..4: 0.3% 18.7% 1.4% P16..4: 37.7% 27.9% 12.7% 0.0% 0.0% skip: 1.3%
---[Information] [10.08.2014 18:52:55] x264 [info]: mb B I16..4: 0.0% 2.8% 0.1% B16..8: 43.8% 13.9% 4.1% direct:12.7% skip:22.5% L0:45.2% L1:44.2% BI:10.6%
---[Information] [10.08.2014 18:52:55] x264 [info]: 8x8 transform intra:91.7% inter:65.9%
---[Information] [10.08.2014 18:52:55] x264 [info]: coded y,uvDC,uvAC intra: 97.6% 0.0% 0.0% inter: 48.3% 0.0% 0.0%
---[Information] [10.08.2014 18:52:55] x264 [info]: i16 v,h,dc,p: 18% 8% 31% 42%
---[Information] [10.08.2014 18:52:55] x264 [info]: i8 v,h,dc,ddl,ddr,vr,hd,vl,hu: 10% 7% 10% 10% 13% 13% 12% 12% 13%
---[Information] [10.08.2014 18:52:55] x264 [info]: i4 v,h,dc,ddl,ddr,vr,hd,vl,hu: 10% 6% 2% 9% 16% 17% 14% 13% 13%
---[Information] [10.08.2014 18:52:55] x264 [info]: i8c dc,h,v,p: 100% 0% 0% 0%
---[Information] [10.08.2014 18:52:55] x264 [info]: Weighted P-Frames: Y:17.5% UV:0.2%
---[Information] [10.08.2014 18:52:55] x264 [info]: ref P L0: 36.9% 13.7% 18.9% 8.0% 6.8% 5.0% 4.7% 2.8% 2.8% 0.6% 0.0%
---[Information] [10.08.2014 18:52:55] x264 [info]: ref B L0: 66.4% 13.7% 7.6% 4.3% 3.3% 2.8% 1.4% 0.4%
---[Information] [10.08.2014 18:52:55] x264 [info]: ref B L1: 90.2% 9.8%
---[Information] [10.08.2014 18:52:55] x264 [info]: kb/s:6036.91
---[Information] [10.08.2014 18:52:55] encoded 142440 frames, 4.98 fps, 6036.91 kb/s
--[Information] [10.08.2014 18:52:56] Final statistics
---[Information] [10.08.2014 18:52:56] Constant Quality Mode: Quality 19 computed...
---[Information] [10.08.2014 18:52:56] Video Bitrate Obtained (approximate): 6038 kbit/s
--[Information] [10.08.2014 18:52:56] MediaInfo
---[Information] [10.08.2014 18:52:56] File: D:RipParigskij bljuz.1961.BDRipParigskij bljuz.1961.BDRip.720p.mkv
pb.wtf



Скачать Парижский блюз через торрент http://i64.fastpic.ru/big/2014/0919/42/e0b014ef8f66eca8be36efc5e680b742.jpg Скачать фильм Парижский блюз через торрент бесплантно в хорошем качестве Описание: В Париж, город мечты и соблазнов, приезжают отдохнуть две молодые учительницы-американки. Они знакомятся с двумя джазовыми ... 10 10 3
Info! Серебряная раздача, засчитывается только 50% скачанного.
Торрент: Зарегистрирован [2014-09-19 13:17] · скачан: 7 раз
Статус: √ проверено
Размер: 4.44 GB
Как cкачать? Как скачать Парижский блюз через торрент | qTorrent

% Раздел Тема Автор DL S | L
Фильмы [HD 720p, 1080p] (Хороший звук DUB, MVO) [ 11.18 GB ] Парижский блюз / Paris Blues [1961 музыка BDRip 1080p] DVO msltel Скачать
1 | 0
Фильмы до 2000 г. [ 1.65 GB ] Парижский блюз / Paris Blues [1961 музыка BDRip] DVO msltel Скачать
1 | 0

28-11-2019 20:33  

Отключить всю рекламу на сайте

    Дорогой пользователь! Огромная просьба, поблагодарите релизера, оцените раздачу и оставьте свои комментарий, если Вы скачали Парижский блюз через торрент бесплатно! Внесите свою лепту в развитие PiratBit!
    Комментировать посты могут только пользователи прошедшие не сложную регистрацию
    Показать сообщения:    

    Парижский блюз через торрент
    Скачать бесплатно Парижский блюз
    Парижский блюз скачать торрент
    Парижский блюз смотреть онлайн
    Cкачать фильм Парижский блюз бесплатно
    Парижский блюз скачать торрент в хорошем качестве
    Парижский блюз смотреть онлайн бесплатно в хорошем качестве


    Вы не можете начинать темы
    Вы не можете отвечать на сообщения
    Вы не можете редактировать свои сообщения
    Вы не можете удалять свои сообщения
    Вы не можете голосовать в опросах
    Вы не можете прикреплять файлы к сообщениям
    Вы можете скачивать файлы