2 сезон

iTunes

1 сезон

1

iTunes

iTunes

iTunes

1 сезон

RePack

30

ИГРА 18+

pack

ВАЖНО

!!Акция!!

Alien_RageХит недели

RePack

MK11
pack

Забери бонус

RePack

jed

!!Акция!!

Alien_Rage

RePack

fifa19

RePack

Assassins Creed: Odyssey

RePack

NEED FOR SPEED™ PAYBACK

4 сезон

9 сезон

Бесстыжие 9 сезон

Все сериалы

все сериалы на PB.wtf

RePack

FAR CRY 5
  

Парижский блюз / Paris Blues (Мартин Ритт) [1961г., драма, мелодрама, музыка, BDRip 1080p] DVO pb.wtf

Парижский блюз через торрент pb.wtf

Размер: 11.18 GB | Добавлен: 6 лет 1 мес. назад | Торрент скачан:12 раз
Скачать  

19-09-2014 13:25 Парижский блюз Скачать торрент  

Парижский блюз / Paris Blues
Релиз от: msltel

Год выпуска: 1961
Страна: США
Жанр: драма, мелодрама, музыка
Продолжительность: 01:39:00
Перевод: Профессиональный двухголосый
Субтитры: английские

Режиссёр: Мартин Ритт

В ролях: Пол Ньюман, Джоэнн Вудворд, Сидни Пуатье, Луи Армстронг, Дайэнн Кэррол, Андре Люге, Мари Верзини, Мусташ, Аарон Бриджерс, Серж Реджани, Роже Блен, Шарль Буйо, Элен Дьедонне

Описание: В Париж, город мечты и соблазнов, приезжают отдохнуть две молодые учительницы-американки. Они знакомятся с двумя джазовыми музыкантами, тоже американцами, но уже давно осевшими в Париже и даже сколотившими свой собственный ансамбль. Молодые люди начинают ухаживать за очаровательными девушками, их романы бурно развиваются, но время неумолимо, отпуск заканчивается, и необходимо сделать решающий выбор в своей жизни. Что одержит верх – музыка или любовь? Вместе с известными актерами Полом Ньюманом и Сидни Пуатье в картине «Парижский блюз» снялся великий Луи Армстронг, украсивший фильм не только волшебной музыкой, но и своей актёрской игрой.



Качество: BDRip 1080p [Исходник от Sergei7721] Сравнение с исходником
Формат: MKV
Видео кодек: H.264
Аудио кодек: AC3, DTS
Видео: 1800x1080, 14.1 Mbps, 23.976 кадра/сек
Аудио 1: русский, AC3, 192 kbps, 2 ch, 48 kHz [Профессиональный двухголосый]
Аудио 2: английский, DTS, 1509 kbps, 2 ch, 48 kHz [Оригинал]
Оскар, 1962 год
Номинации (1):
Лучший саундтрек для музыкальных картин
Общее
Уникальный идентификатор : 212688222086924353098213767486612678533 (0xA00242F67C4479FDA837766E1AFBA785)
Полное имя : D:VideoParigskij bljuz.1961.BDRip.1080p.mkv
Формат : Matroska
Версия формата : Version 4 / Version 2
Размер файла : 11,2 Гбайт
Продолжительность : 1 ч. 39 м.
Общий поток : 16,2 Мбит/сек
Дата кодирования : UTC 2014-08-13 03:51:12
Программа кодирования : mkvmerge v6.9.1 ('Blue Panther') 64bit built on Apr 18 2014 18:23:38
Библиотека кодирования : libebml v1.3.0 + libmatroska v1.4.1

Видео
Идентификатор : 1
Формат : AVC
Формат/Информация : Advanced Video Codec
Профиль формата : High@L4.1
Параметр CABAC формата : Да
Параметр ReFrames формата : 4 кадра
Идентификатор кодека : V_MPEG4/ISO/AVC
Продолжительность : 1 ч. 39 м.
Битрейт : 14,1 Мбит/сек
Ширина : 1800 пикселей
Высота : 1080 пикселей
Соотношение сторон : 1,667
Режим частоты кадров : Постоянный
Частота кадров : 23,976 кадра/сек
Цветовое пространство : YUV
Субдискретизация насыщенности : 4:2:0
Битовая глубина : 8 бит
Тип развёртки : Прогрессивная
Бит/(Пиксели*Кадры) : 0.303
Размер потока : 9,78 Гбайт (87%)
Заголовок : BDRip -- STarankov
Библиотека кодирования : x264 core 142 r2431 ac76440
Настройки программы : cabac=1 / ref=4 / deblock=1:-1:-1 / analyse=0x3:0x113 / me=umh / subme=10 / psy=1 / psy_rd=1.00:0.15 / mixed_ref=1 / me_range=32 / chroma_me=1 / trellis=2 / 8x8dct=1 / cqm=0 / deadzone=21,11 / fast_pskip=0 / chroma_qp_offset=-3 / threads=6 / lookahead_threads=1 / sliced_threads=0 / nr=0 / decimate=1 / interlaced=0 / bluray_compat=0 / constrained_intra=0 / bframes=8 / b_pyramid=2 / b_adapt=2 / b_bias=0 / direct=1 / weightb=1 / open_gop=0 / weightp=2 / keyint=230 / keyint_min=23 / scenecut=40 / intra_refresh=0 / rc_lookahead=40 / rc=crf / mbtree=0 / crf=20.0 / qcomp=0.60 / qpmin=0 / qpmax=69 / qpstep=4 / vbv_maxrate=40000 / vbv_bufsize=50000 / crf_max=0.0 / nal_hrd=none / filler=0 / ip_ratio=1.40 / pb_ratio=1.30 / aq=1:1.00
Язык : English
Default : Да
Forced : Нет

Аудио #1
Идентификатор : 2
Формат : AC-3
Формат/Информация : Audio Coding 3
Расширение режима : CM (complete main)
Параметр Endianness формата : Big
Идентификатор кодека : A_AC3
Продолжительность : 1 ч. 39 м.
Вид битрейта : Постоянный
Битрейт : 192 Кбит/сек
Каналы : 2 канала
Расположение каналов : Front: L R
Частота : 48,0 КГц
Битовая глубина : 16 бит
Метод сжатия : С потерями
Размер потока : 136 Мбайт (1%)
Заголовок : DVO
Язык : Russian
Default : Да
Forced : Нет

Аудио #2
Идентификатор : 3
Формат : DTS
Формат/Информация : Digital Theater Systems
Режим : 16
Параметр Endianness формата : Big
Идентификатор кодека : A_DTS
Продолжительность : 1 ч. 39 м.
Вид битрейта : Постоянный
Битрейт : 1509 Кбит/сек
Каналы : 2 канала
Расположение каналов : Front: L R
Частота : 48,0 КГц
Битовая глубина : 16 бит
Метод сжатия : С потерями
Размер потока : 1,04 Гбайт (9%)
Заголовок : Original
Язык : English
Default : Нет
Forced : Нет

Текст
Идентификатор : 4
Формат : UTF-8
Идентификатор кодека : S_TEXT/UTF8
Идентификатор кодека/Информация : UTF-8 Plain Text
Заголовок : английский
Язык : English
Default : Нет
Forced : Нет

---[Information] [11.08.2014 5:48:55] raw [info]: 1800x1080p 1:1 @ 24000/1001 fps (cfr)
---[Information] [11.08.2014 5:48:55] x264 [info]: using SAR=1/1
---[Information] [11.08.2014 5:48:55] x264 [info]: using cpu capabilities: MMX2 SSE2Fast SSSE3 SSE4.2
---[Information] [11.08.2014 5:48:55] x264 [info]: profile High, level 4.1
---[Information] [11.08.2014 18:25:59] x264 [info]: frame I:984 Avg QP:21.52 size:189382
---[Information] [11.08.2014 18:25:59] x264 [info]: frame P:24139 Avg QP:22.73 size:113286
---[Information] [11.08.2014 18:25:59] x264 [info]: frame B:117317 Avg QP:24.65 size: 66622
---[Information] [11.08.2014 18:25:59] x264 [info]: consecutive B-frames: 0.8% 0.4% 1.4% 9.1% 12.7% 44.6% 10.9% 5.2% 14.7%
---[Information] [11.08.2014 18:25:59] x264 [info]: mb I I16..4: 10.8% 67.4% 21.8%
---[Information] [11.08.2014 18:25:59] x264 [info]: mb P I16..4: 1.6% 28.0% 3.0% P16..4: 34.2% 24.2% 8.0% 0.0% 0.0% skip: 0.9%
---[Information] [11.08.2014 18:25:59] x264 [info]: mb B I16..4: 0.8% 5.0% 0.3% B16..8: 45.7% 13.6% 3.4% direct:17.0% skip:14.2% L0:44.9% L1:45.2% BI: 9.9%
---[Information] [11.08.2014 18:25:59] x264 [info]: 8x8 transform intra:82.9% inter:67.1%
---[Information] [11.08.2014 18:25:59] x264 [info]: coded y,uvDC,uvAC intra: 95.3% 0.0% 0.0% inter: 60.6% 0.0% 0.0%
---[Information] [11.08.2014 18:25:59] x264 [info]: i16 v,h,dc,p: 9% 6% 48% 37%
---[Information] [11.08.2014 18:25:59] x264 [info]: i8 v,h,dc,ddl,ddr,vr,hd,vl,hu: 12% 8% 9% 9% 13% 13% 12% 12% 13%
---[Information] [11.08.2014 18:25:59] x264 [info]: i4 v,h,dc,ddl,ddr,vr,hd,vl,hu: 12% 7% 5% 9% 13% 14% 13% 12% 14%
---[Information] [11.08.2014 18:25:59] x264 [info]: i8c dc,h,v,p: 100% 0% 0% 0%
---[Information] [11.08.2014 18:25:59] x264 [info]: Weighted P-Frames: Y:14.6% UV:0.2%
---[Information] [11.08.2014 18:25:59] x264 [info]: ref P L0: 44.3% 14.0% 25.3% 14.4% 2.0% 0.0%
---[Information] [11.08.2014 18:25:59] x264 [info]: ref B L0: 83.9% 13.0% 3.1%
---[Information] [11.08.2014 18:25:59] x264 [info]: ref B L1: 88.6% 11.4%
---[Information] [11.08.2014 18:25:59] x264 [info]: kb/s:14458.21
---[Information] [11.08.2014 18:25:59] encoded 142440 frames, 3.14 fps, 14458.21 kb/s
--[Information] [11.08.2014 18:26:02] Final statistics
---[Information] [11.08.2014 18:26:02] Constant Quality Mode: Quality 20 computed...
---[Information] [11.08.2014 18:26:02] Video Bitrate Obtained (approximate): 14459 kbit/s
--[Information] [11.08.2014 18:26:02] MediaInfo
---[Information] [11.08.2014 18:26:02] File: D:RipParigskij bljuz.1961.BDRipParigskij bljuz.1961.BDRip.1080p.mkv
pb.wtf



Скачать Парижский блюз через торрент http://i64.fastpic.ru/big/2014/0919/42/e0b014ef8f66eca8be36efc5e680b742.jpg Скачать фильм Парижский блюз через торрент бесплантно в хорошем качестве Описание: В Париж, город мечты и соблазнов, приезжают отдохнуть две молодые учительницы-американки. Они знакомятся с двумя джазовыми ... 10 10 1
Info! Золотая раздача, скачанное не засчитывается.
Торрент: Зарегистрирован [2014-09-19 13:25] · скачан: 12 раз
Статус: √ проверено
Размер: 11.18 GB
Как cкачать? Как скачать Парижский блюз через торрент | qTorrent

% Раздел Тема Автор DL S | L
Фильмы [HD 720p, 1080p] (Хороший звук DUB, MVO) [ 4.44 GB ] Парижский блюз / Paris Blues [1961 музыка BDRip 720p] DVO msltel Скачать
1 | 0
Фильмы до 2000 г. [ 1.65 GB ] Парижский блюз / Paris Blues [1961 музыка BDRip] DVO msltel Скачать
1 | 0

28-11-2019 20:33  

Отключить всю рекламу на сайте

    Дорогой пользователь! Огромная просьба, поблагодарите релизера, оцените раздачу и оставьте свои комментарий, если Вы скачали Парижский блюз через торрент бесплатно! Внесите свою лепту в развитие PiratBit!
    Комментировать посты могут только пользователи прошедшие не сложную регистрацию
    Показать сообщения:    

    Парижский блюз через торрент
    Скачать бесплатно Парижский блюз
    Парижский блюз скачать торрент
    Парижский блюз смотреть онлайн
    Cкачать фильм Парижский блюз бесплатно
    Парижский блюз скачать торрент в хорошем качестве
    Парижский блюз смотреть онлайн бесплатно в хорошем качестве


    Вы не можете начинать темы
    Вы не можете отвечать на сообщения
    Вы не можете редактировать свои сообщения
    Вы не можете удалять свои сообщения
    Вы не можете голосовать в опросах
    Вы не можете прикреплять файлы к сообщениям
    Вы можете скачивать файлы