Всегда рабочее зеркало просто перед .vidak.icu напиши любое слово или цифру, Пример http://mz5.vidak.icu

>

7.4

iTunes

7.4

2 сезон

9.4

1 сезон

1

7.4

2 сезон

7.2

iTunes

6.0

MVO

13

6.1

iTunes

8.3

Пиратка

30

ULTIMATE

pack

9.9

Лицензия

ВАЖНО

ИГРА 18+

pack

7.3

RePack

MK11

7.7

RePack

jed

7.8

RePack

fifa19

8.5

RePack

RDR2

RePack

NEED FOR SPEED™ PAYBACK

1 сезон

9 сезон

Бесстыжие 9 сезон

Все сериалы

все сериалы на PB.wtf

RePack

FAR CRY 5

Anonymous, доброй ночи, мы катастрофически не успеваем собрать деньги на оплату серверов, помогите нам пожалуйста 5,10,15р., для нас важна любая помощь . В качестве благодарности мы отключим Вам всю рекламу на сайте (укажите свой ник в строку Ваше имя)!

×
  
Magnet ссылка

Осиное гнездо / Nid de guepes / The Nest (Флоран Эмилио Сири / Florent Emilio Siri) [2002, боевик, триллер, криминал, BDRip] [AVO] (А.Карповский) pb.wtf

Осиное гнездо через торрент pb.wtf

Размер: 1.45 GB | Добавлен: 7 лет 4 мес. назад | Торрент скачан:67 раз
Смотреть онлайн Осиное гнездо | Скачать    Ребята, помогите собрать деньги на оплату серверов!!!

19-09-2014 15:13 Осиное гнездо Скачать торрент  

Осиное гнездоNid de guepes / The Nest


Год выпуска: 2002
Страна: Франция
Жанр: боевик, триллер, криминал
Продолжительность: 01:47:16 (154464 frames)
Перевод: Авторский (одноголосый, закадровый) [А.Карповский]


Режиссер: Флоран Эмилио Сири / Florent Emilio Siri

В ролях: Сами Насери, Бенуа Мажимель, Надя Фарес, Паскаль Грегори, Сами Буажила, Рихард Заммель, Валерио Мастандреа, Марсаль Одон

Описание: Офицер спецназа тридцатилетняя Элен Лабори получает задание отконвоировать в здание суда знаменитого албанского мафиози Абедина Нексера, обвиняемого в распространении проституции и создании широкой европейской сети домов терпимости. Лабори понимает, что мафия попытается спасти своего лидера. Так и случилось: во время операции вооруженные люди Нексера нападают на Лабори и ее суперагентов. Изматывая полицейских бешеной погоней, бандиты загоняют их в ловушку — огромный промышленный склад. Смертельная игра в «кошки-мышки» начинается...

СЕМПЛ Рип:

Качество: BDRip (исх. The.Nest.2002.Remux.1080p.hdtracker, спасибо KpucTo161)
Формат: AVI
Видео кодек: XviD
Аудио кодек: AC3
Видео: XviD, 720x304 (2.37:1), 24 fps, 1483 kbps avg, 0.28 bit/pixel
Аудио: AC3 Dolby Digital, 48 kHz, 448 kbps, 3/2 (L,C,R,l,r) + LFE ch

Код:

Общее
Полное имя                               : F:\RT\Osinoye_gnezdo.2002.XviD.BDRip.AVO.Inch.avi
Формат                                   : AVI
Формат/Информация                        : Audio Video Interleave
Размер файла                             : 1,45 Гбайт
Продолжительность                        : 1 ч. 47 м.
Общий поток                              : 1941 Кбит/сек
Название фильма                          : Osinoye_gnezdo.2002.XviD.BDRip.AVO.Inch
Режиссёр                                 : Inch
Жанр                                     : Action / Crime / Thriller
Программа кодирования                    : VirtualDubMod 1.5.10.3 | www.virtualdub-fr.org || (build 2550/release)
Формат оригинала/Имя                     : Nid de guepes
Правообладатель                          : rutracker.org
Примечание                               : rusAVO [Karpovskiy]
Видео
Идентификатор                            : 0
Формат                                   : MPEG-4 Visual
Профиль формата                          : Advanced Simple@L5
Параметр BVOP формата                    : 2
Параметр QPel формата                    : Нет
Параметр GMC формата                     : Без точки перехода
Параметр матрицы формата                 : Выборочная
Идентификатор кодека                     : XVID
Идентификатор кодека/Подсказка           : XviD
Продолжительность                        : 1 ч. 47 м.
Битрейт                                  : 1484 Кбит/сек
Ширина                                   : 720 пикселей
Высота                                   : 304 пикселя
Соотношение сторон                       : 2,35:1
Частота кадров                           : 24,000 кадра/сек
Цветовое пространство                    : YUV
Субдискретизация насыщенности            : 4:2:0
Битовая глубина                          : 8 бит
Тип развёртки                            : Прогрессивная
Метод сжатия                             : С потерями
Бит/(Пиксели*Кадры)                      : 0.282
Размер потока                            : 1,11 Гбайт (76%)
Библиотека кодирования                   : XviD 73
Аудио
Идентификатор                            : 1
Формат                                   : AC-3
Формат/Информация                        : Audio Coding 3
Расширение режима                        : CM (complete main)
Параметр Endianness формата              : Big
Идентификатор кодека                     : 2000
Продолжительность                        : 1 ч. 47 м.
Вид битрейта                             : Постоянный
Битрейт                                  : 448 Кбит/сек
Каналы                                   : 6 каналов
Расположение каналов                     : Front: L C R, Side: L R, LFE
Частота                                  : 48,0 КГц
Битовая глубина                          : 16 бит
Метод сжатия                             : С потерями
Размер потока                            : 344 Мбайт (23%)
Выравнивание                             : Разделение по промежуткам
Продолжительность промежутка             : 42  мс. (1,00 видеокадр)
Время предзагрузки промежутка            : 500  мс.

За перевод Карповского большое спасибо пользователям форума hdtracker:
KpucTo161, v111o, ZeRoNe, Xerman13, dunhill200, timur, _MyxAmoP_, Dr. Destructo, Luka69, Hattori Hanzo, Denis2251, Role, feldeger, Диммон, arvideo, TOMAN, shtift, HDKing, vadamk, olegsoleg .
pb.wtf



Скачать Осиное гнездо через торрент http://i66.fastpic.ru/big/2014/0919/6a/6089176d13ab412a12acfeac5a0cc16a.jpg Скачать, смотреть онлайн Осиное гнездо бесплантно в хорошем качестве Описание: Офицер спецназа тридцатилетняя Элен Лабори получает задание отконвоировать в здание суда знаменитого албанского мафиози Абедина ... 8.8 10 6
Торрент: Зарегистрирован [2014-09-19 15:13] · скачан: 67 раз
Статус: √ проверено
Размер: 1.45 GB
Как cкачать? Как скачать Осиное гнездо через торрент | UTorrent

28-11-2019 20:33  

Отключить всю рекламу на сайте

    Дорогой пользователь! Огромная просьба, поблагодарите релизера, оцените раздачу и оставьте свои комментарий, если Вы скачали Осиное гнездо через торрент бесплатно!
    Комментировать посты могут только пользователи прошедшие не сложную регистрацию
    Показать сообщения:    

    Осиное гнездо через торрент
    Скачать бесплатно Осиное гнездо
    Осиное гнездо скачать торрент
    Осиное гнездо смотреть онлайн
    Cкачать фильм Осиное гнездо бесплатно
    Осиное гнездо скачать торрент в хорошем качестве
    Осиное гнездо смотреть онлайн бесплатно в хорошем качестве


    Вы не можете начинать темы
    Вы не можете отвечать на сообщения
    Вы не можете редактировать свои сообщения
    Вы не можете удалять свои сообщения
    Вы не можете голосовать в опросах
    Вы не можете прикреплять файлы к сообщениям
    Вы можете скачивать файлы