>

7.4

iTunes

7.4

2 сезон

9.4

1 сезон

1

7.4

2 сезон

7.2

iTunes

6.0

MVO

13

6.1

iTunes

8.3

Пиратка

30

ULTIMATE

pack

9.9

Лицензия

ВАЖНО

ИГРА 18+

pack

7.3

RePack

MK11

7.7

RePack

jed

7.8

RePack

fifa19

8.5

RePack

RDR2

RePack

NEED FOR SPEED™ PAYBACK

1 сезон

9 сезон

Бесстыжие 9 сезон

Все сериалы

все сериалы на PB.wtf

RePack

FAR CRY 5

Anonymous, добрый вечер, мы катастрофически не успеваем собрать деньги на оплату серверов, помогите нам пожалуйста 5,10,15р., для нас важна любая помощь . В качестве благодарности мы отключим Вам всю рекламу на сайте (укажите свой ник в строку Ваше имя)!

×
  
Magnet ссылка

Железный человек 3 / Iron Man Three (Шейн Блэк) [2013 г., фантастика, боевик, приключения, BDRip, Авторский одноголосый "Ю.Живов"] pb.wtf

Железный человек 3 через торрент pb.wtf

Размер: 2.17 GB | Добавлен: 7 лет 3 мес. назад | Торрент скачан:54 раза
Смотреть онлайн Железный человек 3 | Скачать    Ребята, помогите собрать деньги на оплату серверов!!!

19-09-2014 16:25 Железный человек 3 Скачать торрент  

Железный человек 3 / Iron Man Three
Год выпуска: 2013
Страна: США , Китай / Marvel Studios, Paramount Pictures, DMG Entertainment
Жанр: фантастика, боевик, приключения
Продолжительность: 02:10:33
Перевод: Авторский одноголосый (Ю.Живов)

Режиссер: Шейн Блэк

В ролях: Роберт Дауни мл., Гвинет Пэлтроу, Дон Чидл, Гай Пирс, Бен Кингсли, Джеймс Бэдж Дэйл, Ребекка Холл, Тай Симпкинс, Уильям Сэдлер, Джон Фавро

Описание: Когда мир Старка рушится на его глазах по вине неизвестных противников, Тони жаждет найти виновных и свести с ними счеты. Оказавшись в безвыходной ситуации, Старк может рассчитывать только на себя и свою изобретательность, чтобы защитить тех, кто ему дорог. Это становится настоящим испытанием для героя, которому придется не только сражаться с коварным врагом, но и разобраться в себе, чтобы найти ответ на вопрос, который давно его тревожит: что важнее — человек или костюм?

Качество: BDRip (Рип с BD-Remux 1080p [2D/3D])
  • Формат: AVI
    Видео кодек: XviD
    Аудио кодек: AC3
    Видео: MPEG4, XviD, 720x304 (2.35:1), 23.976 fps, 1 920 Kbps (0.366 bit/pixel)
    Аудио: AC-3, 48.0 KHz, 6 ch, 448 Kbps, CBR
    скриншот   скриншот   скриншот   скриншот   скриншот   скриншот   скриншот   скриншот  

    Общее
    Полное имя : G:\кино\Iron Man Three.2013.BDRip.avi
    Формат : AVI
    Формат/Информация : Audio Video Interleave
    Профиль формата : OpenDML
    Размер файла : 2,17 Гбайт
    Продолжительность : 2 ч. 10 м.
    Общий поток : 2380 Кбит/сек
    Программа кодирования : VirtualDubMod 1.5.10.3 | www.virtualdub-fr.org || (build 2550/release)
    Библиотека кодирования : VirtualDubMod build 2550/release

    Видео
    Идентификатор : 0
    Формат : MPEG-4 Visual
    Профиль формата : Advanced Simple@L5
    Параметр BVOP формата : 2
    Параметр QPel формата : Нет
    Параметр GMC формата : Без точки перехода
    Параметр матрицы формата : Default (H.263)
    Идентификатор кодека : XVID
    Идентификатор кодека/Подсказка : XviD
    Продолжительность : 2 ч. 10 м.
    Битрейт : 1920 Кбит/сек
    Ширина : 720 пикселей
    Высота : 304 пикселя
    Соотношение сторон : 2,35:1
    Частота кадров : 23,976 кадра/сек
    Цветовое пространство : YUV
    Субдискретизация насыщенности : 4:2:0
    Битовая глубина : 8 бит
    Тип развёртки : Прогрессивная
    Метод сжатия : С потерями
    Бит/(Пиксели*Кадры) : 0.366
    Размер потока : 1,75 Гбайт (81%)
    Библиотека кодирования : XviD 1.2.1 (UTC 2008-12-04)

    Аудио
    Идентификатор : 1
    Формат : AC-3
    Формат/Информация : Audio Coding 3
    Расширение режима : CM (complete main)
    Параметр Endianness формата : Big
    Идентификатор кодека : 2000
    Продолжительность : 2 ч. 10 м.
    Вид битрейта : Постоянный
    Битрейт : 448 Кбит/сек
    Каналы : 6 каналов
    Расположение каналов : Front: L C R, Side: L R, LFE
    Частота : 48,0 КГц
    Битовая глубина : 16 бит
    Метод сжатия : С потерями
    Размер потока : 418 Мбайт (19%)
    Выравнивание : Разделение по промежуткам
    Продолжительность промежутка : 42 мс. (1,00 видеокадр)
    Время предзагрузки промежутка : 500 мс.

    pb.wtf



  • Скачать Железный человек 3 через торрент https://pic1.kartinco.top/images/71/lz1m6.jpg Скачать, смотреть онлайн Железный человек 3 бесплантно в хорошем качестве Описание: Когда мир Старка рушится на его глазах по вине неизвестных противников, Тони жаждет найти виновных и свести с ними счеты. ... 8.5 10 6
    Торрент: Зарегистрирован [2014-09-19 16:25] · скачан: 54 раз
    Статус: √ проверено
    Размер: 2.17 GB
    Как cкачать? Как скачать Железный человек 3 через торрент | UTorrent

    28-11-2019 20:33  

    Отключить всю рекламу на сайте

    19-09-2014 16:53 Железный человек 3 Скачать торрент  

    Действительно есть люди, которые предпочтут смотреть фильм в ссаной одноголоске, когда есть дубляж?pb.wtf
    !Messa-fan писал(а):

    Устное предупреждение.

    ZohanTvir писал(а):

    когда есть дубляж?

    ну так и зачем в этой теме писать?



    19-09-2014 17:02 Железный человек 3 Скачать торрент  

    ZohanTvir писал(а):

    Действительно есть люди, которые предпочтут смотреть фильм в ссаной одноголоске, когда есть дубляж?

    Уважаемый за это высказывание я думаю модератор вам горчичник выпишет.Дубляж или авторский перевод -это на любителя!pb.wtf



    19-09-2014 18:41 Железный человек 3 Скачать торрент  

    ZohanTvir писал(а):

    Действительно есть люди, которые предпочтут смотреть фильм в ссаной одноголоске, когда есть дубляж?

    Смотря кто перевел. часто бывает что авторский перевод в разы лучше любого дубляжа. к примеру фильмы с переводом Гоблина , в последнее время Ден904 тоже неплохо переводит. так что здесь на вкус и цвет как говорится.pb.wtf



    23-01-2015 18:25 Железный человек 3 Скачать торрент  

    Друзья встаньте на раздачу ,плиз!pb.wtf



    24-01-2015 09:39 Железный человек 3 Скачать торрент  

    Все ,уже не надо ,нашел в другом месте.pb.wtf



    10-03-2015 14:23 Железный человек 3 Скачать торрент  

    Постойте пожалуйста кто нибудь на раздаче. А то 59% скачал и все. А то очень хочется этот фильм в переводе Ю. Живова посмотреть!pb.wtf



    11-03-2015 08:32 Железный человек 3 Скачать торрент  

    Да ладно вам! Фильм не такой уж и старый, что бы всем с раздачи уходить. Чего так глухо то совсем?pb.wtf



    18-03-2015 15:45 Железный человек 3 Скачать торрент  

    Есть хоть кто нибудь живой на это раздаче то? В статусе написано - раздают пять человек. Ага, третью неделю скачать не могу. Раздача мертвая. Или у вас лимит раздач пол года максимум?pb.wtf



      Дорогой пользователь! Огромная просьба, поблагодарите релизера, оцените раздачу и оставьте свои комментарий, если Вы скачали Железный человек 3 через торрент бесплатно!
      Комментировать посты могут только пользователи прошедшие не сложную регистрацию
      Показать сообщения:    

      Железный человек 3 через торрент
      Скачать бесплатно Железный человек 3
      Железный человек 3 скачать торрент
      Железный человек 3 смотреть онлайн
      Cкачать фильм Железный человек 3 бесплатно
      Железный человек 3 скачать торрент в хорошем качестве
      Железный человек 3 смотреть онлайн бесплатно в хорошем качестве


      Вы не можете начинать темы
      Вы не можете отвечать на сообщения
      Вы не можете редактировать свои сообщения
      Вы не можете удалять свои сообщения
      Вы не можете голосовать в опросах
      Вы не можете прикреплять файлы к сообщениям
      Вы можете скачивать файлы