Достать ножи: Стеклянная луковица

MVO

Добыча

Дубляж

Уэнсдэй

1 сезон

Тор

Дубляж

13 клиническая

1 сезон

Жестокая ночь

MVO

Одни из нас

1 сезон

Deluxe

pack

Рекомендуем

30

Пиратка

ВАЖНО

ВАЖНО

Ghostwire

Пиратка

jed

RePack

nioh2

RePack

RDR2

RePack

NEED FOR SPEED™ PAYBACK

RePack

скачать торрент

Кинопоиск HD

Острые козырьки 6 сезон

6 сезон

FAR CRY 6

RePack

скачать торрент

Лицензия

скачать торрент

MVO

1

1 сезон

скачать торрент

1 сезон

скачать торрент

Лицензия

  

Тёмная долина / Das finstere Tal (Андреас Прохазка / Andreas Prochaska) [2014, Австрия, Германия, вестерн, HDRip, Профессиональный многоголосый [Лицензия]

Тёмная долина через торрент pb.wtf

Размер: 1.37 GB | Добавлен: 8 лет 4 мес. назад | Торрент скачан:1177 раз
Смотреть онлайн | Скачать | Поддержите нас   

20-09-2014 01:39 Тёмная долина Скачать торрент  

Тёмная долина / Das finstere Tal


  • Год выпуска: 2014
  • Страна: Австрия, Германия
  • Жанр: вестерн
  • Продолжительность: 01:54:44
  • Перевод: Профессиональный многоголосый [Лицензия]

  • Режиссер: Андреас Прохазка / Andreas Prochaska
  • В ролях:

    Сэм Райли (Greider), Тобиас Моретти (Hans Brenner), Хельмут Хеуслер (Hubert Brenner), Мартин Лойтгеб (Otto Brenner), Йоханнес Николусси (Rudolf Brenner), Клеменс Шик (Luis Brenner), Флориан Брюкнер (Edi Brenner), Ганс-Михаэль Реберг (Brenner), Эрвин Штайнхауэр (Breiser), Франц Ксавер Брюкнер (Franz), Ксения Ассенца (Maria), Кармен Гратль (Gaderin)

  • Описание:
    Тайными путями одинокий всадник пробирается в маленький городок высоко в Альпах. Никто не знает, откуда прибыл незнакомец и чего он хочет. Но в одном жители городка уверены - они не хотят, чтобы он оставался здесь.
  • Рейтинг:



  • Качество: HDRip
  • Формат: :AVI
  • Видео кодек: XviD
  • Аудио кодек: AC3
  • Видео: 720x304 (2.35:1), 1247 kbps, 24 fps, 0,238 bpp
  • Аудио: 5.1 / 48 kHz / 448 kbps / 16 bit
  • Релиз от: GEKADOL

    Код:

    General
    Complete name                            : I:\TemHaya.D0l1na.2014.P.HDRip.1400MB.avi
    Format                                   : AVI
    Format/Info                              : Audio Video Interleave
    File size                                : 1.37 GiB
    Duration                                 : 1h 54mn
    Overall bit rate                         : 1 705 Kbps
    Writing application                      : VirtualDubMod 1.5.10.2 (build 2540/release)
    Writing library                          : VirtualDubMod build 2540/release

    Video
    ID                                       : 0
    Format                                   : MPEG-4 Visual
    Format profile                           : Advanced [email protected]
    Format settings, BVOP                    : 2
    Format settings, QPel                    : No
    Format settings, GMC                     : No warppoints
    Format settings, Matrix                  : Default (MPEG)
    Codec ID                                 : XVID
    Codec ID/Hint                            : XviD
    Duration                                 : 1h 54mn
    Bit rate                                 : 1 248 Kbps
    Width                                    : 720 pixels
    Height                                   : 304 pixels
    Display aspect ratio                     : 2.35:1
    Frame rate                               : 24.000 fps
    Color space                              : YUV
    Chroma subsampling                       : 4:2:0
    Bit depth                                : 8 bits
    Scan type                                : Progressive
    Compression mode                         : Lossy
    Bits/(Pixel*Frame)                       : 0.238
    Stream size                              : 1.00 GiB (73%)
    Writing library                          : XviD 1.2.1 (UTC 2008-12-04)

    Audio
    ID                                       : 1
    Format                                   : AC-3
    Format/Info                              : Audio Coding 3
    Mode extension                           : CM (complete main)
    Codec ID                                 : 2000
    Duration                                 : 1h 54mn
    Bit rate mode                            : Constant
    Bit rate                                 : 448 Kbps
    Channel(s)                               : 6 channels
    Channel positions                        : Front: L C R, Side: L R, LFE
    Sampling rate                            : 48.0 KHz
    Bit depth                                : 16 bits
    Compression mode                         : Lossy
    Stream size                              : 368 MiB (26%)
    Alignment                                : Split accross interleaves
    Interleave, duration                     : 42 ms (1.00 video frame)
    Interleave, preload duration             : 500 ms


    Скриншоты:





  • Скачать Тёмная долина через торрент http://i63.fastpic.ru/big/2014/0920/75/b8ee799b1555dfa3e2be656c2f2cbb75.jpg Скачать, смотреть онлайн Тёмная долина бесплантно в хорошем качестве Описание: Тайными путями одинокий всадник пробирается в маленький городок высоко в Альпах. Никто не знает, откуда прибыл незнакомец и чего ... 9.7 10 32
    Info! Золотая раздача, скачанное не засчитывается.
    Торрент: Зарегистрирован [2014-09-20 01:39] · скачан: 1 177 раз
    Статус: √ проверено
    Размер: 1.37 GB
    Как cкачать? Как скачать Тёмная долина через торрент | UTorrent

    % Раздел Тема Автор DL S | L
    Фильмы 2014 [DVDrip, WEB-DLRip, HDrip] [ 2.05 GB ] Тёмная долина / Das finstere Tal | Лицензия | HDRip MVO - Лицензия _KaisiK_ Скачать
    1 | 0
    Фильмы [HD 720p, 1080p] (Хороший звук DUB, MVO) [ 8.45 GB ] Тёмная долина / Das finstere Tal | | 1080p, Профессиональный, многоголосый _denis_100 Скачать
    1 | 0
    Фильмы [HD 720p, 1080p] (Хороший звук DUB, MVO) [ 4.68 GB ] Тёмная долина / Das finstere Tal | Лицензия | 720p,Профессиональный многоголосый [Лицензия -Lockdown- Скачать
    1 | 0

    28-11-2019 20:33  


    Отключить вcю реклaмy на сайте, в т.ч. и в плеере онлайн просмотра!

    20-09-2014 20:24 Тёмная долина Скачать торрент  

    Фильм нормальный, особенно саундтрек в лесу.



    21-09-2014 09:49 Тёмная долина Скачать торрент  

    неплохой фильмец



    21-09-2014 09:55 Тёмная долина Скачать торрент  

    Щас скачаем глянём ) спасибо что отписались



    02-12-2014 16:30 Тёмная долина Скачать торрент  

    Фильм из серии "Добро должно быть с кулаками" и "Добро победит зло....догонит его и будет жестоко бить" А так неплохой фильм.



      Дорогой пользователь! Огромная просьба, поблагодарите релизера, оцените раздачу и оставьте свои комментарий, если Вы скачали Тёмная долина через торрент бесплатно!!
      Комментировать посты могут только пользователи прошедшие не сложную регистрацию
      Показать сообщения:    


      Тёмная долина через торрент
      Скачать бесплатно Тёмная долина
      Тёмная долина скачать торрент
      Тёмная долина смотреть онлайн
      Cкачать фильм Тёмная долина бесплатно
      Тёмная долина скачать торрент в хорошем качестве
      Тёмная долина смотреть онлайн бесплатно в хорошем качестве
      Вы не можете начинать темы
      Вы не можете отвечать на сообщения
      Вы не можете редактировать свои сообщения
      Вы не можете удалять свои сообщения
      Вы не можете голосовать в опросах
      Вы не можете прикреплять файлы к сообщениям
      Вы можете скачивать файлы
      Тёмная долина / Das finstere Tal [2014, Австрия, Германия, вестерн, HDRip, Профессиональный многоголосый [Лицензия] смотреть онлайн, скачать торрент picoco.icu