2 сезон

iTunes

1 сезон

1

iTunes

iTunes

iTunes

1 сезон

RePack

30

ИГРА 18+

pack

ВАЖНО

!!Акция!!

Alien_RageХит недели

RePack

MK11
pack

Забери бонус

RePack

jed

!!Акция!!

Alien_Rage

RePack

fifa19

RePack

Assassins Creed: Odyssey

RePack

NEED FOR SPEED™ PAYBACK

4 сезон

9 сезон

Бесстыжие 9 сезон

Все сериалы

все сериалы на PB.wtf

RePack

FAR CRY 5
  

Университетская кровь / Varsity Blood (Jake Helgren) [2014, США, ужасы, WEB-DLRip, Любительский (одноголосый)[datynet] pb.wtf

Университетская кровь через торрент pb.wtf

Размер: 1.38 GB | Добавлен: 6 лет 1 мес. назад | Торрент скачан:135 раз
Скачать  

20-09-2014 01:57 Университетская кровь Скачать торрент  

Университетская кровь / Varsity Blood


  • Год выпуска: 2014
  • Страна: США
  • Жанр: ужасы
  • Продолжительность: 01:26:45
  • Перевод: Любительский (одноголосый)[datynet]

  • Режиссер: Jake Helgren
  • В ролях:

    Лекси Джованьоли (Hannah Wallace), Уэсли Скотт (Jeff Jenson), Дэбби Рошон (Nancy Wallace), Натали Пейтон (Tina Blair), Блэр Джексон (Blaine Bochner), Элиз Биглер (Heather Zann), Мелоди Херрон (Robin Donaldson), Джесси Ферраро (Mike Brophy), Kiarra Hogan (Linda Jones), Крис Хлоцек (Rick Youngblood), Пэйтон Вуд (Bubba Barton), Фабиан Уоткинс (Sheriff Jones)

  • Описание:
    Участники футбольной команды и чирлидерши закатывают вечеринку в заброшенном фермерском домике. Но один за другим подростки начинают погибать от рук неизвестного злодея в костюме школьного талисмана...
  • Рейтинг:



  • Качество: WEB-DLRip
  • Формат: :AVI
  • Видео кодек: XviD
  • Аудио кодек: AC3, MP3
  • Видео: 720x400 (16:9), 1852 kbps, 23,976 fps, 0,268 bpp
  • Аудио №1: 2.0 / 44 kHz / 192 kbps
  • Аудио №2: 2.0 / 48 kHz / 224 kbps / 16 bit
  • Релиз от: GEKADOL
    Не нашли то, что искали? Для вас "Стол заказов" "Жмём сюда!"

    Код:

    General
    Complete name                            : I:\Varsity.Blood.2014.L1.WEB-DLRip.avi
    Format                                   : AVI
    Format/Info                              : Audio Video Interleave
    File size                                : 1.38 GiB
    Duration                                 : 1h 26mn
    Overall bit rate                         : 2 283 Kbps
    Writing application                      : VirtualDubMod 1.5.10.3 | www.virtualdub-fr.org || (build 2550/release)
    Writing library                          : VirtualDubMod build 2550/release

    Video
    ID                                       : 0
    Format                                   : MPEG-4 Visual
    Format profile                           : Advanced Simple@L5
    Format settings, BVOP                    : 2
    Format settings, QPel                    : No
    Format settings, GMC                     : No warppoints
    Format settings, Matrix                  : Default (H.263)
    Muxing mode                              : Packed bitstream
    Codec ID                                 : XVID
    Codec ID/Hint                            : XviD
    Duration                                 : 1h 26mn
    Bit rate                                 : 1 853 Kbps
    Width                                    : 720 pixels
    Height                                   : 400 pixels
    Display aspect ratio                     : 16:9
    Frame rate                               : 23.976 fps
    Color space                              : YUV
    Chroma subsampling                       : 4:2:0
    Bit depth                                : 8 bits
    Scan type                                : Progressive
    Compression mode                         : Lossy
    Bits/(Pixel*Frame)                       : 0.268
    Stream size                              : 1.12 GiB (81%)
    Writing library                          : XviD 64

    Audio #1
    ID                                       : 1
    Format                                   : MPEG Audio
    Format version                           : Version 1
    Format profile                           : Layer 3
    Codec ID                                 : 55
    Codec ID/Hint                            : MP3
    Duration                                 : 1h 26mn
    Bit rate mode                            : Constant
    Bit rate                                 : 192 Kbps
    Channel(s)                               : 2 channels
    Sampling rate                            : 44.1 KHz
    Compression mode                         : Lossy
    Stream size                              : 119 MiB (8%)
    Alignment                                : Split accross interleaves
    Interleave, duration                     : 42 ms (1.00 video frame)
    Interleave, preload duration             : 500 ms

    Audio #2
    ID                                       : 2
    Format                                   : AC-3
    Format/Info                              : Audio Coding 3
    Mode extension                           : CM (complete main)
    Codec ID                                 : 2000
    Duration                                 : 1h 26mn
    Bit rate mode                            : Constant
    Bit rate                                 : 224 Kbps
    Channel(s)                               : 2 channels
    Channel positions                        : Front: L R
    Sampling rate                            : 48.0 KHz
    Bit depth                                : 16 bits
    Compression mode                         : Lossy
    Delay relative to video                  : 8ms
    Stream size                              : 139 MiB (10%)
    Alignment                                : Split accross interleaves
    Interleave, duration                     : 42 ms (1.00 video frame)
    Interleave, preload duration             : 500 ms


    Скриншоты:


    pb.wtf



  • Скачать Университетская кровь через торрент http://i63.fastpic.ru/big/2014/0920/2e/134d6ec973eb9c124ab978c8fb3ec22e.jpg Скачать фильм Университетская кровь через торрент бесплантно в хорошем качестве Описание: Участники футбольной команды и чирлидерши закатывают вечеринку в заброшенном фермерском домике. Но один за другим подростки ... 8.7 10 7
    Торрент: Зарегистрирован [2014-09-20 01:57] · скачан: 135 раз
    Статус: T временная
    Размер: 1.38 GB
    Как cкачать? Как скачать Университетская кровь через торрент | qTorrent

    28-11-2019 20:33  

    Отключить всю рекламу на сайте

    20-09-2014 07:59 Университетская кровь Скачать торрент  

    чирлидерши бл..ди устроили презентацию в неудачном месте. ну дык у них всегда с этим траблы.. я так то русский, но присутствовал на одной такой "раздаче", ога, хозяин ебнутой (у них это гордо зовется амбаром) прострелил ноги потенциальному рэмбе, а хуле, нех япатся на чужой территории)))
    зы. подредактировать что ле? снова ж нагонят.. да ну его все... пусть будет как есть, добрым молодцам урокpb.wtf



    20-09-2014 08:32 Университетская кровь Скачать торрент  

    tamburetko писал(а):

    чирлидерши бл..ди устроили презентацию в неудачном месте. ну дык у них всегда с этим траблы.. я так то русский, но присутствовал на одной такой "раздаче", ога, хозяин ебнутой (у них это гордо зовется амбаром) прострелил ноги потенциальному рэмбе, а хуле, нех япатся на чужой территории)))
    зы. подредактировать что ле? снова ж нагонят.. да ну его все... пусть будет как есть, добрым молодцам урок

    любите америгу, хулеpb.wtf



    20-09-2014 08:33 Университетская кровь Скачать торрент  

    tamburetko писал(а):

    tamburetko писал(а):

    чирлидерши бл..ди устроили презентацию в неудачном месте. ну дык у них всегда с этим траблы.. я так то русский, но присутствовал на одной такой "раздаче", ога, хозяин ебнутой (у них это гордо зовется амбаром) прострелил ноги потенциальному рэмбе, а хуле, нех япатся на чужой территории)))
    зы. подредактировать что ле? снова ж нагонят.. да ну его все... пусть будет как есть, добрым молодцам урок

    любите америгу, хуле, царство демократии

    pb.wtf



    09-12-2014 09:59 Университетская кровь Скачать торрент  

    tamburetko писал(а):

    tamburetko писал(а):

    чирлидерши бл..ди устроили презентацию в неудачном месте. ну дык у них всегда с этим траблы.. я так то русский, но присутствовал на одной такой "раздаче", ога, хозяин ебнутой (у них это гордо зовется амбаром) прострелил ноги потенциальному рэмбе, а хуле, нех япатся на чужой территории)))
    зы. подредактировать что ле? снова ж нагонят.. да ну его все... пусть будет как есть, добрым молодцам урок

    любите америгу, хуле

    Я бы сказал какое оно царство )pb.wtf



      Дорогой пользователь! Огромная просьба, поблагодарите релизера, оцените раздачу и оставьте свои комментарий, если Вы скачали Университетская кровь через торрент бесплатно! Внесите свою лепту в развитие PiratBit!
      Комментировать посты могут только пользователи прошедшие не сложную регистрацию
      Показать сообщения:    

      Университетская кровь через торрент
      Скачать бесплатно Университетская кровь
      Университетская кровь скачать торрент
      Университетская кровь смотреть онлайн
      Cкачать фильм Университетская кровь бесплатно
      Университетская кровь скачать торрент в хорошем качестве
      Университетская кровь смотреть онлайн бесплатно в хорошем качестве


      Вы не можете начинать темы
      Вы не можете отвечать на сообщения
      Вы не можете редактировать свои сообщения
      Вы не можете удалять свои сообщения
      Вы не можете голосовать в опросах
      Вы не можете прикреплять файлы к сообщениям
      Вы можете скачивать файлы