Ссылка на приватное зеркало нашего сайта всего за 1$. Внимание количество ограничено!!!

2 сезон

iTunes

1 сезон

1

2 сезон

2 сезон

iTunes

1 сезон

RePack

30

Ultimate

ВАЖНО

ИГРА 18+

pack

RePack

MK11
pack

Забери бонус

RePack

jed

!!Акция!!

Alien_Rage

RePack

fifa19

RePack

Assassins Creed: Odyssey

RePack

NEED FOR SPEED™ PAYBACK

4 сезон

9 сезон

Бесстыжие 9 сезон

Все сериалы

все сериалы на PB.wtf

RePack

FAR CRY 5
  

Тёмная долина / Das finstere Tal (Андреас Прохазка) [2014, вестерн, BD Remux, MVO+VO] от R.G. HD-Films pb.wtf

Тёмная долина через торрент pb.wtf

Размер: 21.07 GB | Добавлен: 6 лет 2 мес. назад | Торрент скачан:195 раз
Скачать  

20-09-2014 07:12 Тёмная долина Скачать торрент  

Тёмная долина / Das finstere Tal


Год выпуска: 2014
Страна: Австрия, Германия
Жанр:вестерн
Продолжительность:01:54:44
Перевод:Профессиональный многоголосый [Лицензия]+VO [Lord32x]
Режиссер:Андреас Прохазка

  • В ролях:

    Сэм Райли (Greider), Тобиас Моретти (Hans Brenner), Хельмут Хеуслер (Hubert Brenner), Мартин Лойтгеб (Otto Brenner), Йоханнес Николусси (Rudolf Brenner), Клеменс Шик (Luis Brenner), Флориан Брюкнер (Edi Brenner), Ганс-Михаэль Реберг (Brenner), Эрвин Штайнхауэр (Breiser), Франц Ксавер Брюкнер (Franz), Ксения Ассенца (Maria), Кармен Гратль (Gaderin)

  • Описание:
    Тайными путями одинокий всадник пробирается в маленький городок высоко в Альпах. Никто не знает, откуда прибыл незнакомец и чего он хочет. Но в одном жители городка уверены - они не хотят, чтобы он оставался здесь.

  • Мировая премьера:10 февраля 2014

    Качество: BD Remux
    Формат:MKV
    Видео кодек: AVC
    Аудио кодек:AC3
    Видео: AVC, 1920x1080 (16:9), 24294 kbps, 24 fps, 0,488 bpp
    Аудио №1: русский / AC3 / 5.1 / 48 kHz / 640 kbps / 16 bit || MVO [Лицензия]
    Аудио №2: русский / AC3 / 5.1 / 48 kHz / 448 kbps / 16 bit || MVO [Лицензия]
    Аудио №3: русский / AC3 / 5.1 / 48 kHz / 384 kbps / 16 bit || VO [Lord32x]
    Навигация по главам: есть


    Код:

    General
    Unique ID                                : 226671048026833563041751716807204526488 (0xAA8741822438F11686878E0CEB01D998)
    Complete name                            : D:\Торенты\Кино\Das.finstere.Tal.2014.1080p.BD-Remux..Release for Piratbit.net_R.G. HD-Films.mkv
    Format                                   : Matroska
    Format version                           : Version 4 / Version 2
    File size                                : 21.1 GiB
    Duration                                 : 1h 54mn
    Overall bit rate mode                    : Variable
    Overall bit rate                         : 26.3 Mbps
    Movie name                               : _Release for Piratbit.net_R.G. HD-Films
    Encoded date                             : UTC 2014-09-20 05:15:01
    Writing application                      : mkvmerge v7.1.0 ('Good Love') 64bit built on Jul 27 2014 13:06:55
    Writing library                          : libebml v1.3.0 + libmatroska v1.4.1
    DURATION                                 : 01:54:44.032000000
    NUMBER_OF_FRAMES                         : 215126
    NUMBER_OF_BYTES                          : 385505792
    _STATISTICS_WRITING_APP                  : mkvmerge v7.1.0 ('Good Love') 64bit built on Jul 27 2014 13:06:55
    _STATISTICS_WRITING_DATE_UTC             : 2014-09-20 05:15:01
    _STATISTICS_TAGS                         : BPS DURATION NUMBER_OF_FRAMES NUMBER_OF_BYTES
    Attachment                               : Yes

    Video
    ID                                       : 1
    Format                                   : AVC
    Format/Info                              : Advanced Video Codec
    Format profile                           : High@L4.1
    Format settings, CABAC                   : Yes
    Format settings, ReFrames                : 4 frames
    Codec ID                                 : V_MPEG4/ISO/AVC
    Duration                                 : 1h 54mn
    Bit rate mode                            : Variable
    Bit rate                                 : 24.3 Mbps
    Maximum bit rate                         : 33.0 Mbps
    Width                                    : 1 920 pixels
    Height                                   : 1 080 pixels
    Display aspect ratio                     : 16:9
    Frame rate                               : 24.000 fps
    Standard                                 : NTSC
    Color space                              : YUV
    Chroma subsampling                       : 4:2:0
    Bit depth                                : 8 bits
    Scan type                                : Progressive
    Bits/(Pixel*Frame)                       : 0.488
    Stream size                              : 19.5 GiB (92%)
    Title                                    : _Release for Piratbit.net_R.G. HD-Films
    Language                                 : Russian
    Default                                  : Yes
    Forced                                   : No
    Color primaries                          : BT.709-5, BT.1361, IEC 61966-2-4, SMPTE RP177
    Transfer characteristics                 : BT.709-5, BT.1361
    Matrix coefficients                      : BT.709-5, BT.1361, IEC 61966-2-4 709, SMPTE RP177

    Audio #1
    ID                                       : 2
    Format                                   : AC-3
    Format/Info                              : Audio Coding 3
    Mode extension                           : CM (complete main)
    Codec ID                                 : A_AC3
    Duration                                 : 1h 54mn
    Bit rate mode                            : Constant
    Bit rate                                 : 640 Kbps
    Channel(s)                               : 6 channels
    Channel positions                        : Front: L C R, Side: L R, LFE
    Sampling rate                            : 48.0 KHz
    Bit depth                                : 16 bits
    Compression mode                         : Lossy
    Stream size                              : 525 MiB (2%)
    Title                                    : Профессиональный многоголосый закадровый) [Лицензия]
    Language                                 : Russian
    Default                                  : Yes
    Forced                                   : Yes

    Audio #2
    ID                                       : 3
    Format                                   : AC-3
    Format/Info                              : Audio Coding 3
    Mode extension                           : CM (complete main)
    Codec ID                                 : A_AC3
    Duration                                 : 1h 54mn
    Bit rate mode                            : Constant
    Bit rate                                 : 448 Kbps
    Channel(s)                               : 6 channels
    Channel positions                        : Front: L C R, Side: L R, LFE
    Sampling rate                            : 48.0 KHz
    Bit depth                                : 16 bits
    Compression mode                         : Lossy
    Stream size                              : 368 MiB (2%)
    Title                                    : Профессиональный многоголосый закадровый) [Лицензия]
    Language                                 : Russian
    Default                                  : No
    Forced                                   : No

    Audio #3
    ID                                       : 4
    Format                                   : AC-3
    Format/Info                              : Audio Coding 3
    Mode extension                           : CM (complete main)
    Codec ID                                 : A_AC3
    Duration                                 : 1h 54mn
    Bit rate mode                            : Constant
    Bit rate                                 : 384 Kbps
    Channel(s)                               : 6 channels
    Channel positions                        : Front: L C R, Side: L R, LFE
    Sampling rate                            : 48.0 KHz
    Bit depth                                : 16 bits
    Compression mode                         : Lossy
    Stream size                              : 315 MiB (1%)
    Title                                    : Любительское (одноголосое) Lord32x [по субтитрам kon2011]
    Language                                 : Russian
    Default                                  : No
    Forced                                   : No

    Menu
    00:00:00.000                             : en:Chapter 1
    00:09:40.250                             : en:Chapter 2
    00:20:09.708                             : en:Chapter 3
    00:28:27.000                             : en:Chapter 4
    00:39:48.625                             : en:Chapter 5
    00:49:15.000                             : en:Chapter 6
    00:56:12.833                             : en:Chapter 7
    01:03:55.541                             : en:Chapter 8
    01:08:34.082                             : en:Chapter 9
    01:21:32.957                             : en:Chapter 10
    01:33:25.707                             : en:Chapter 11
    01:49:57.333                             : en:Chapter 12

    Скриншоты:


    Релиз подготовлен специально для Piratbit.net. by Raven
    pb.wtf



  • Скачать Тёмная долина через торрент http://pic.kartinco.top/images/6/stazu.jpg Скачать фильм Тёмная долина через торрент бесплантно в хорошем качестве Описание:Тайными путями одинокий всадник пробирается в маленький городок высоко в Альпах. Никто не знает, откуда прибыл незнакомец и чего ... 9.8 10 17
    Info! Золотая раздача, скачанное не засчитывается.
    Торрент: Зарегистрирован [2014-09-20 07:12] · скачан: 195 раз
    Статус: √ проверено
    Размер: 21.07 GB
    Как cкачать? Как скачать Тёмная долина через торрент | qTorrent

    28-11-2019 20:33  

    Отключить всю рекламу на сайте

    20-09-2014 07:52 Тёмная долина Скачать торрент  

    как фильм?pb.wtf



    20-09-2014 08:27 Тёмная долина Скачать торрент  

    diletant,
    Награды:
    Bavarian Film Awards 2014 - "Лучший актёр" (Тобиас Моретти), "Лучший режиссёр" (Андреас Прохазка)
    Diagonale, Austria 2014 - "Лучшая операторская работа в художественном фильме" (Томас Киенаст)
    Festróia - Tróia International Film Festival 2014 - "Лучшая операторская работа" (Томас Киенаст, Allegro Film)
    German Camera Award 2014 - "Лучший художественный фильм"
    German Film Awards 2014 - "Лучшая мужская роль второго плана" (Тобиас Моретти), "Лучшая операторская работа" (Томас Киенаст), "Лучший дизайнер" (Клаус-Рудольф Амлер), "Лучший дизайн костюмов" (Наташа Куртиус-Носс), "Лучший макияж" (Роман Браунхофер, Елена Ланг), "Лучший саундтрек" (Матиас Вебер), "Лучший звук" (Чангиз Чарох, Кристоф Эбхард, Дитмар Засон), "Выдающийся художественный фильм" (Стефан Арндт, Гельмут Грассер, X-Filme Creative Pool)
    Puchon International Fantastic Film Festival 2014 - "Режиссёр" (Андреас Прохазка)
    Romy Gala, Austria 2014 - "Лучшая операторская работа" (Томас Киенаст)

    Ждал но пока не смотрел...в любом случае фильм достоин внимания, учитывая куча наград.pb.wtf



    20-09-2014 08:52 Тёмная долина Скачать торрент  

    Raven, ого, вон как!) тогда спасибо за матрешку winkpb.wtf



    26-09-2014 06:45 Тёмная долина Скачать торрент  

    Глянул, фильм с интрижкой, держит до половины в напряжении..ну потом развязка очень интересная..я доволен картинка качественная 8/10.pb.wtf



      Дорогой пользователь! Огромная просьба, поблагодарите релизера, оцените раздачу и оставьте свои комментарий, если Вы скачали Тёмная долина через торрент бесплатно! Внесите свою лепту в развитие PiratBit!
      Комментировать посты могут только пользователи прошедшие не сложную регистрацию
      Показать сообщения:    

      Тёмная долина через торрент
      Скачать бесплатно Тёмная долина
      Тёмная долина скачать торрент
      Тёмная долина смотреть онлайн
      Cкачать фильм Тёмная долина бесплатно
      Тёмная долина скачать торрент в хорошем качестве
      Тёмная долина смотреть онлайн бесплатно в хорошем качестве


      Вы не можете начинать темы
      Вы не можете отвечать на сообщения
      Вы не можете редактировать свои сообщения
      Вы не можете удалять свои сообщения
      Вы не можете голосовать в опросах
      Вы не можете прикреплять файлы к сообщениям
      Вы можете скачивать файлы