2 сезон

iTunes

1 сезон

1

iTunes

iTunes

iTunes

1 сезон

RePack

30

ИГРА 18+

pack

ВАЖНО

!!Акция!!

Alien_RageХит недели

RePack

MK11
pack

Забери бонус

RePack

jed

!!Акция!!

Alien_Rage

RePack

fifa19

RePack

Assassins Creed: Odyssey

RePack

NEED FOR SPEED™ PAYBACK

4 сезон

9 сезон

Бесстыжие 9 сезон

Все сериалы

все сериалы на PB.wtf

RePack

FAR CRY 5
  

Сыграй мне перед смертью / Play Misty for me (Клинт Иствуд) [1971г., Триллер, драма, мелодрама, криминал, BDRip 1080p] DUB, MVO pb.wtf

Сыграй мне перед смертью через торрент pb.wtf

Размер: 11.74 GB | Добавлен: 6 лет 1 мес. назад | Торрент скачан:4 раза
Скачать  

20-09-2014 13:36 Сыграй мне перед смертью Скачать торрент  

Сыграй мне перед смертью / Play Misty for me
Релиз от: msltel

Год выпуска: 1971
Страна: США
Жанр: Триллер, драма, мелодрама, криминал
Продолжительность: 01:42:04
Перевод: Дублированный, профессиональный многоголосый
Субтитры: Русские, английские (все отдельно)

Режиссёр: Клинт Иствуд

В ролях: Клинт Иствуд, Джессика Уолтер, Донна Миллс, Джон Ларч, Джек Джинг, Ирен Херви, Джеймс МакИчин, Клариса Тейлор, Дон Сигел, Дьюк Эвертс, Джордж Фарго, Тим Фроули, Брит Линд, Пол Е. Липпман, Джинна Паттерсон, Малкольм Моран, Дон Хэмилтон, Роберт С. Холман, Джонни Отис, Уолтер Спир

Описание: Популярному калифорнийскому диск-жокею Дэйву постоянно звонит по телефону сексуальный женский голос и просит передать песню «Сыграй мне по-жалостней». Заинтригованный, он вскоре встречается с фанаткой в его любимом ночном заведении, и у них начинается любовная интрига. Но когда Дэйв решает прекратить роман, Эвелин воспламеняется еще большей страстью, и угроза нависает над жизнью его постоянной подружки.



Качество: BDRip 1080p [Исходник от Sergei7721] Сравнение с исходником
Формат: MKV
Видео кодек: H.264
Аудио кодек: AC3,DTS
Видео: 1920x1040, 13.5 Mbps, 23.976 кадра/сек
Аудио 1: русский, DTS, 768 kbps, 2 ch, 48 kHz [Дублированный]
Аудио 2: русский, AC3, 192 kbps, 2 ch, 48 kHz [Профессиональный многоголосый, DVD Classic]
Аудио 3: русский, AC3, 192 kbps, 2 ch, 48 kHz [Профессиональный многоголосый, OPT]
Аудио 4: английский, DTS, 1509 kbps, 6 ch, 48 kHz [Оригинал]

Имеются неименованные главы/чаптеры.
Золотой глобус, 1972 год
Номинации (1):
Лучшая женская роль (драма) (Джессика Уолтер)
Общее
Уникальный идентификатор : 250332747814891613507264821341997973285 (0xBC545560C374A521872C680FE5E73F25)
Полное имя : D:VideoSygraj mne pered smertju.1971.BDRip.1080p.mkv
Формат : Matroska
Версия формата : Version 4 / Version 2
Размер файла : 11,7 Гбайт
Продолжительность : 1 ч. 42 м.
Общий поток : 16,5 Мбит/сек
Дата кодирования : UTC 2014-08-17 05:22:09
Программа кодирования : mkvmerge v6.9.1 ('Blue Panther') 64bit built on Apr 18 2014 18:23:38
Библиотека кодирования : libebml v1.3.0 + libmatroska v1.4.1

Видео
Идентификатор : 1
Формат : AVC
Формат/Информация : Advanced Video Codec
Профиль формата : High@L4.1
Параметр CABAC формата : Да
Параметр ReFrames формата : 4 кадра
Идентификатор кодека : V_MPEG4/ISO/AVC
Продолжительность : 1 ч. 42 м.
Битрейт : 13,5 Мбит/сек
Ширина : 1920 пикселей
Высота : 1040 пикселей
Соотношение сторон : 1,85:1
Режим частоты кадров : Постоянный
Частота кадров : 23,976 кадра/сек
Цветовое пространство : YUV
Субдискретизация насыщенности : 4:2:0
Битовая глубина : 8 бит
Тип развёртки : Прогрессивная
Бит/(Пиксели*Кадры) : 0.282
Размер потока : 9,61 Гбайт (82%)
Заголовок : BDRip -- STarankov
Библиотека кодирования : x264 core 142 r2431 ac76440
Настройки программы : cabac=1 / ref=4 / deblock=1:-1:-1 / analyse=0x3:0x113 / me=umh / subme=10 / psy=1 / psy_rd=1.00:0.15 / mixed_ref=1 / me_range=32 / chroma_me=1 / trellis=2 / 8x8dct=1 / cqm=0 / deadzone=21,11 / fast_pskip=0 / chroma_qp_offset=-3 / threads=6 / lookahead_threads=1 / sliced_threads=0 / nr=0 / decimate=1 / interlaced=0 / bluray_compat=0 / constrained_intra=0 / bframes=8 / b_pyramid=2 / b_adapt=2 / b_bias=0 / direct=1 / weightb=1 / open_gop=0 / weightp=2 / keyint=230 / keyint_min=23 / scenecut=40 / intra_refresh=0 / rc_lookahead=40 / rc=crf / mbtree=0 / crf=19.3 / qcomp=0.60 / qpmin=0 / qpmax=69 / qpstep=4 / vbv_maxrate=40000 / vbv_bufsize=50000 / crf_max=0.0 / nal_hrd=none / filler=0 / ip_ratio=1.40 / pb_ratio=1.30 / aq=1:1.00
Язык : English
Default : Да
Forced : Нет

Аудио #1
Идентификатор : 2
Формат : DTS
Формат/Информация : Digital Theater Systems
Режим : 16
Параметр Endianness формата : Big
Идентификатор кодека : A_DTS
Продолжительность : 1 ч. 42 м.
Вид битрейта : Постоянный
Битрейт : 768 Кбит/сек
Каналы : 2 канала
Расположение каналов : Front: L R
Частота : 48,0 КГц
Битовая глубина : 24 бит
Метод сжатия : С потерями
Размер потока : 561 Мбайт (5%)
Заголовок : DUB
Язык : Russian
Default : Да
Forced : Нет

Аудио #2
Идентификатор : 3
Формат : AC-3
Формат/Информация : Audio Coding 3
Расширение режима : CM (complete main)
Параметр Endianness формата : Big
Идентификатор кодека : A_AC3
Продолжительность : 1 ч. 42 м.
Вид битрейта : Постоянный
Битрейт : 192 Кбит/сек
Каналы : 2 канала
Расположение каналов : Front: L R
Частота : 48,0 КГц
Битовая глубина : 16 бит
Метод сжатия : С потерями
Размер потока : 140 Мбайт (1%)
Заголовок : MVO (DVD Classic)
Язык : Russian
Default : Нет
Forced : Нет

Аудио #3
Идентификатор : 4
Формат : AC-3
Формат/Информация : Audio Coding 3
Расширение режима : CM (complete main)
Параметр Endianness формата : Big
Идентификатор кодека : A_AC3
Продолжительность : 1 ч. 42 м.
Вид битрейта : Постоянный
Битрейт : 192 Кбит/сек
Каналы : 2 канала
Расположение каналов : Front: L R
Частота : 48,0 КГц
Битовая глубина : 16 бит
Метод сжатия : С потерями
Размер потока : 140 Мбайт (1%)
Заголовок : MVO (OPT)
Язык : Russian
Default : Нет
Forced : Нет

Аудио #4
Идентификатор : 5
Формат : DTS
Формат/Информация : Digital Theater Systems
Режим : 16
Параметр Endianness формата : Big
Идентификатор кодека : A_DTS
Продолжительность : 1 ч. 42 м.
Вид битрейта : Постоянный
Битрейт : 1509 Кбит/сек
Каналы : 2 канала
Расположение каналов : Front: L R
Частота : 48,0 КГц
Битовая глубина : 24 бит
Метод сжатия : С потерями
Размер потока : 1,08 Гбайт (9%)
Заголовок : Original
Язык : English
Default : Нет
Forced : Нет

Текст #1
Идентификатор : 6
Формат : UTF-8
Идентификатор кодека : S_TEXT/UTF8
Идентификатор кодека/Информация : UTF-8 Plain Text
Заголовок : русский
Язык : Russian
Default : Нет
Forced : Нет

Текст #2
Идентификатор : 7
Формат : UTF-8
Идентификатор кодека : S_TEXT/UTF8
Идентификатор кодека/Информация : UTF-8 Plain Text
Заголовок : английский
Default : Нет
Forced : Нет

Меню
00:00:00.000 : en:Chapter 01
00:05:02.010 : en:Chapter 02
00:09:36.117 : en:Chapter 03
00:15:52.576 : en:Chapter 04
00:19:25.497 : en:Chapter 05
00:27:48.083 : en:Chapter 06
00:31:05.488 : en:Chapter 07
00:42:28.837 : en:Chapter 08
00:51:36.843 : en:Chapter 09
00:56:19.793 : en:Chapter 10
01:01:01.032 : en:Chapter 11
01:02:32.582 : en:Chapter 12
01:07:34.842 : en:Chapter 13
01:13:17.684 : en:Chapter 14
01:19:46.531 : en:Chapter 15
01:27:30.995 : en:Chapter 16
01:29:42.502 : en:Chapter 17
01:41:28.040 : en:Chapter 18

---[Information] [11.08.2014 18:26:06] raw [info]: 1920x1040p 1:1 @ 24000/1001 fps (cfr)
---[Information] [11.08.2014 18:26:06] x264 [info]: using SAR=1/1
---[Information] [11.08.2014 18:26:06] x264 [info]: using cpu capabilities: MMX2 SSE2Fast SSSE3 SSE4.2
---[Information] [11.08.2014 18:26:06] x264 [info]: profile High, level 4.1
---[Information] [12.08.2014 9:32:52] x264 [info]: frame I:888 Avg QP:18.95 size:173022
---[Information] [12.08.2014 9:32:52] x264 [info]: frame P:26701 Avg QP:19.79 size:107707
---[Information] [12.08.2014 9:32:52] x264 [info]: frame B:119255 Avg QP:21.86 size: 63207
---[Information] [12.08.2014 9:32:52] x264 [info]: consecutive B-frames: 0.9% 0.6% 2.4% 6.7% 14.2% 67.1% 5.8% 1.5% 0.8%
---[Information] [12.08.2014 9:32:52] x264 [info]: mb I I16..4: 13.8% 74.0% 12.2%
---[Information] [12.08.2014 9:32:52] x264 [info]: mb P I16..4: 6.2% 34.9% 2.7% P16..4: 27.9% 21.4% 6.2% 0.0% 0.0% skip: 0.8%
---[Information] [12.08.2014 9:32:52] x264 [info]: mb B I16..4: 4.4% 7.8% 0.3% B16..8: 36.7% 14.3% 2.9% direct:21.1% skip:12.6% L0:44.1% L1:41.8% BI:14.0%
---[Information] [12.08.2014 9:32:52] x264 [info]: 8x8 transform intra:70.4% inter:52.9%
---[Information] [12.08.2014 9:32:52] x264 [info]: coded y,uvDC,uvAC intra: 97.6% 79.2% 38.2% inter: 62.7% 44.0% 0.8%
---[Information] [12.08.2014 9:32:52] x264 [info]: i16 v,h,dc,p: 5% 3% 77% 15%
---[Information] [12.08.2014 9:32:52] x264 [info]: i8 v,h,dc,ddl,ddr,vr,hd,vl,hu: 9% 8% 16% 9% 12% 11% 10% 12% 14%
---[Information] [12.08.2014 9:32:52] x264 [info]: i4 v,h,dc,ddl,ddr,vr,hd,vl,hu: 8% 6% 9% 10% 14% 13% 13% 12% 15%
---[Information] [12.08.2014 9:32:52] x264 [info]: i8c dc,h,v,p: 44% 26% 21% 9%
---[Information] [12.08.2014 9:32:52] x264 [info]: Weighted P-Frames: Y:8.6% UV:4.2%
---[Information] [12.08.2014 9:32:52] x264 [info]: ref P L0: 43.0% 10.8% 31.0% 14.1% 1.1% 0.0%
---[Information] [12.08.2014 9:32:52] x264 [info]: ref B L0: 82.8% 13.6% 3.7%
---[Information] [12.08.2014 9:32:52] x264 [info]: ref B L1: 91.1% 8.9%
---[Information] [12.08.2014 9:32:52] x264 [info]: kb/s:13803.03
---[Information] [12.08.2014 9:32:52] encoded 146844 frames, 2.70 fps, 13803.03 kb/s
--[Information] [12.08.2014 9:32:53] Final statistics
---[Information] [12.08.2014 9:32:53] Constant Quality Mode: Quality 19 computed...
---[Information] [12.08.2014 9:32:53] Video Bitrate Obtained (approximate): 13804 kbit/s
--[Information] [12.08.2014 9:32:53] MediaInfo
---[Information] [12.08.2014 9:32:53] File: D:RipSygraj mne pered smertju.1971.BDRipSygraj mne pered smertju.1971.BDRip.1080p.mkv
pb.wtf



Скачать Сыграй мне перед смертью через торрент http://i64.fastpic.ru/big/2014/0920/48/1c2124aa1dfe81ec229cac3e88209548.jpg Скачать фильм Сыграй мне перед смертью через торрент бесплантно в хорошем качестве Описание: Популярному калифорнийскому диск-жокею Дэйву постоянно звонит по телефону сексуальный женский голос и просит передать песню ... 10 10 4
Info! Золотая раздача, скачанное не засчитывается.
Торрент: Зарегистрирован [2014-09-20 13:36] · скачан: 4 раз
Статус: √ проверено
Размер: 11.74 GB
Как cкачать? Как скачать Сыграй мне перед смертью через торрент | qTorrent

28-11-2019 20:33  

Отключить всю рекламу на сайте

    Дорогой пользователь! Огромная просьба, поблагодарите релизера, оцените раздачу и оставьте свои комментарий, если Вы скачали Сыграй мне перед смертью через торрент бесплатно! Внесите свою лепту в развитие PiratBit!
    Комментировать посты могут только пользователи прошедшие не сложную регистрацию
    Показать сообщения:    

    Сыграй мне перед смертью через торрент
    Скачать бесплатно Сыграй мне перед смертью
    Сыграй мне перед смертью скачать торрент
    Сыграй мне перед смертью смотреть онлайн
    Cкачать фильм Сыграй мне перед смертью бесплатно
    Сыграй мне перед смертью скачать торрент в хорошем качестве
    Сыграй мне перед смертью смотреть онлайн бесплатно в хорошем качестве


    Вы не можете начинать темы
    Вы не можете отвечать на сообщения
    Вы не можете редактировать свои сообщения
    Вы не можете удалять свои сообщения
    Вы не можете голосовать в опросах
    Вы не можете прикреплять файлы к сообщениям
    Вы можете скачивать файлы