Ссылка на приватное зеркало нашего сайта всего за 1$. Внимание количество ограничено!!!

2 сезон

iTunes

1 сезон

1

iTunes

iTunes

iTunes

1 сезон

RePack

30

ИГРА 18+

pack

ВАЖНО

!!Акция!!

Alien_RageХит недели

RePack

MK11
pack

Забери бонус

RePack

jed

!!Акция!!

Alien_Rage

RePack

fifa19

RePack

Assassins Creed: Odyssey

RePack

NEED FOR SPEED™ PAYBACK

4 сезон

9 сезон

Бесстыжие 9 сезон

Все сериалы

все сериалы на PB.wtf

RePack

FAR CRY 5
  

Приключения Раввина Якова / Les Aventures de Rabbi Jacob (Жерар Ури) [1973г., Комедия, приключения, BDRip 720p] DUB, MVO, DVO, AVO pb.wtf

Приключения Раввина Якова через торрент pb.wtf

Размер: 5.64 GB | Добавлен: 6 лет 1 мес. назад | Торрент скачан:67 раз
Скачать  

20-09-2014 14:48 Приключения Раввина Якова Скачать торрент  

Приключения Раввина Якова / Les Aventures de Rabbi Jacob
Релиз от: msltel

Год выпуска: 1973
Страна: Франция, Италия
Жанр: Комедия, приключения
Продолжительность: 01:35:22
Перевод: Дублированный, профессиональный многоголосый, профессиональный двухголосый, авторский
Субтитры: Русские, английские (все отдельно)

Режиссёр: Жерар Ури

В ролях: Луи де Фюнес, Клод Жиро, Сьюзи Делер, Марсель Далио, Ренцо Монтаньяни, Джанет Брандт, Андре Фалькон, Ксавье Желен, Анри Гибе, Попек, Миу-Миу, Дениз Прованс, Жак Франсуа, Клод Пьеплю, Жорж Аде, Пол Бисцилиа, Филипп Бриго, Жерар Дармон, Ноэль Дарзаль, Мишель Дюпле, Роберт Дюрантон, Малек Катеб, Мишель Фортен, Мишлин Кан, Эль Кебир, Пьер Кулак, Аликс Махье, Катрин Маршалл, Жерар Мелки, Жан-Жак Моро, Ив Пено, Андре Пенверн, Дениз Перонн, Кэри Рик, Роже Риффар, Мишель Робен, Лайонел Спилман, Джейкоб Толедано, Андре Валарди, Доминик Зарди

Описание: Пивер — законченный ортодокс и консерватор. Его не устраивает никакой цвет кожи, кроме белого. Также, по его мнению, ни одна страна не может даже и близко стоять к родной Франции. Так что, это человек «величайшей гибкости» и понимания. И именно его угораздило влипнуть в историю, где замешаны сразу и полиция, и террористы,… и евреи. По ходу действа наш протагонист окажется в самых уморительных ситуациях в столь же неожиданных декорациях, как, например, завод по производству жевательной резинки или еврейский квартал, откуда он неизменно найдет выход. Не зря же Луи признан великим французским комиком.



Качество: BDRip 720p [Исходник от Igorella87] Сравнение с исходником
Формат: MKV
Видео кодек: H.264
Аудио кодек: AC3
Видео: 1204x720, 6693 kbps, 23.976 кадра/сек
Аудио 1: русский, AC3, 192 kbps, 2 ch, 48 kHz [Дублированный, Киностудия им. Довженко]
Аудио 2: русский, AC3, 384 kbps, 6 ch, 48 kHz [Профессиональный многоголосый]
Аудио 3: русский, AC3, 192 kbps, 2 ch, 48 kHz [Профессиональный многоголосый, ОРТ]
Аудио 4: русский, AC3, 192 kbps, 2 ch, 48 kHz [Профессиональный двухголосый, Фильм-экспорт]
Аудио 5: русский, AC3, 192 kbps, 2 ch, 48 kHz [Авторский, Виктор Махонько]
Аудио 6: французский, AC3, 448 kbps, 6 ch, 48 kHz [Оригинал]
Золотой глобус, 1975 год
Номинации (1):
Лучший иностранный фильм — «Франция»
Общее
Уникальный идентификатор : 213818231964562199144406698457765695330 (0xA0DBE4C0533BEBFF98356F9EBA72CF62)
Полное имя : D:VideoPrikljuchenija ravvina Jakova.1973.BDRip.720p.mkv
Формат : Matroska
Версия формата : Version 4 / Version 2
Размер файла : 5,64 Гбайт
Продолжительность : 1 ч. 35 м.
Общий поток : 8462 Кбит/сек
Дата кодирования : UTC 2014-08-19 02:16:28
Программа кодирования : mkvmerge v6.9.1 ('Blue Panther') 64bit built on Apr 18 2014 18:23:38
Библиотека кодирования : libebml v1.3.0 + libmatroska v1.4.1

Видео
Идентификатор : 1
Формат : AVC
Формат/Информация : Advanced Video Codec
Профиль формата : High@L4.1
Параметр CABAC формата : Да
Параметр ReFrames формата : 9 кадров
Идентификатор кодека : V_MPEG4/ISO/AVC
Продолжительность : 1 ч. 35 м.
Битрейт : 6693 Кбит/сек
Ширина : 1204 пикселя
Высота : 720 пикселей
Соотношение сторон : 1,672
Режим частоты кадров : Постоянный
Частота кадров : 23,976 кадра/сек
Цветовое пространство : YUV
Субдискретизация насыщенности : 4:2:0
Битовая глубина : 8 бит
Тип развёртки : Прогрессивная
Бит/(Пиксели*Кадры) : 0.322
Размер потока : 4,46 Гбайт (79%)
Заголовок : BDRip -- STarankov
Библиотека кодирования : x264 core 142 r2431 ac76440
Настройки программы : cabac=1 / ref=9 / deblock=1:-1:-1 / analyse=0x3:0x113 / me=umh / subme=10 / psy=1 / psy_rd=1.00:0.15 / mixed_ref=1 / me_range=32 / chroma_me=1 / trellis=2 / 8x8dct=1 / cqm=0 / deadzone=21,11 / fast_pskip=0 / chroma_qp_offset=-3 / threads=6 / lookahead_threads=1 / sliced_threads=0 / nr=0 / decimate=1 / interlaced=0 / bluray_compat=0 / constrained_intra=0 / bframes=8 / b_pyramid=2 / b_adapt=2 / b_bias=0 / direct=1 / weightb=1 / open_gop=0 / weightp=2 / keyint=230 / keyint_min=23 / scenecut=40 / intra_refresh=0 / rc_lookahead=40 / rc=crf / mbtree=0 / crf=20.5 / qcomp=0.60 / qpmin=0 / qpmax=69 / qpstep=4 / vbv_maxrate=40000 / vbv_bufsize=50000 / crf_max=0.0 / nal_hrd=none / filler=0 / ip_ratio=1.40 / pb_ratio=1.30 / aq=1:1.00
Язык : English
Default : Да
Forced : Нет

Аудио #1
Идентификатор : 2
Формат : AC-3
Формат/Информация : Audio Coding 3
Расширение режима : CM (complete main)
Параметр Endianness формата : Big
Идентификатор кодека : A_AC3
Продолжительность : 1 ч. 35 м.
Вид битрейта : Постоянный
Битрейт : 192 Кбит/сек
Каналы : 2 канала
Расположение каналов : Front: L R
Частота : 48,0 КГц
Битовая глубина : 16 бит
Метод сжатия : С потерями
Размер потока : 131 Мбайт (2%)
Заголовок : DUB (Киностудия им. Довженко)
Язык : Russian
Default : Да
Forced : Нет

Аудио #2
Идентификатор : 3
Формат : AC-3
Формат/Информация : Audio Coding 3
Расширение режима : CM (complete main)
Параметр Endianness формата : Big
Идентификатор кодека : A_AC3
Продолжительность : 1 ч. 35 м.
Вид битрейта : Постоянный
Битрейт : 384 Кбит/сек
Каналы : 6 каналов
Расположение каналов : Front: L C R, Side: L R, LFE
Частота : 48,0 КГц
Битовая глубина : 16 бит
Метод сжатия : С потерями
Размер потока : 262 Мбайт (5%)
Заголовок : MVO
Язык : Russian
Default : Нет
Forced : Нет

Аудио #3
Идентификатор : 4
Формат : AC-3
Формат/Информация : Audio Coding 3
Расширение режима : CM (complete main)
Параметр Endianness формата : Big
Идентификатор кодека : A_AC3
Продолжительность : 1 ч. 35 м.
Вид битрейта : Постоянный
Битрейт : 192 Кбит/сек
Каналы : 2 канала
Расположение каналов : Front: L R
Частота : 48,0 КГц
Битовая глубина : 16 бит
Метод сжатия : С потерями
Размер потока : 131 Мбайт (2%)
Заголовок : MVO (OPT)
Язык : Russian
Default : Нет
Forced : Нет

Аудио #4
Идентификатор : 5
Формат : AC-3
Формат/Информация : Audio Coding 3
Расширение режима : CM (complete main)
Параметр Endianness формата : Big
Идентификатор кодека : A_AC3
Продолжительность : 1 ч. 35 м.
Вид битрейта : Постоянный
Битрейт : 192 Кбит/сек
Каналы : 2 канала
Расположение каналов : Front: L R
Частота : 48,0 КГц
Битовая глубина : 16 бит
Метод сжатия : С потерями
Размер потока : 131 Мбайт (2%)
Заголовок : DVO (Фильм-экспорт)
Язык : Russian
Default : Нет
Forced : Нет

Аудио #5
Идентификатор : 6
Формат : AC-3
Формат/Информация : Audio Coding 3
Расширение режима : CM (complete main)
Параметр Endianness формата : Big
Идентификатор кодека : A_AC3
Продолжительность : 1 ч. 35 м.
Вид битрейта : Постоянный
Битрейт : 192 Кбит/сек
Каналы : 2 канала
Расположение каналов : Front: L R
Частота : 48,0 КГц
Битовая глубина : 16 бит
Метод сжатия : С потерями
Размер потока : 131 Мбайт (2%)
Заголовок : AVO (Виктор Махонько)
Язык : Russian
Default : Нет
Forced : Нет

Аудио #6
Идентификатор : 7
Формат : AC-3
Формат/Информация : Audio Coding 3
Расширение режима : CM (complete main)
Параметр Endianness формата : Big
Идентификатор кодека : A_AC3
Продолжительность : 1 ч. 35 м.
Вид битрейта : Постоянный
Битрейт : 448 Кбит/сек
Каналы : 6 каналов
Расположение каналов : Front: L C R, Side: L R, LFE
Частота : 48,0 КГц
Битовая глубина : 16 бит
Метод сжатия : С потерями
Размер потока : 306 Мбайт (5%)
Заголовок : Original
Язык : French
Default : Нет
Forced : Нет

Текст #1
Идентификатор : 8
Формат : UTF-8
Идентификатор кодека : S_TEXT/UTF8
Идентификатор кодека/Информация : UTF-8 Plain Text
Заголовок : русский
Язык : Russian
Default : Нет
Forced : Нет

Текст #2
Идентификатор : 9
Формат : UTF-8
Идентификатор кодека : S_TEXT/UTF8
Идентификатор кодека/Информация : UTF-8 Plain Text
Заголовок : английский
Default : Нет
Forced : Нет

---[Information] [18.08.2014 14:52:35] raw [info]: 1204x720p 1:1 @ 24000/1001 fps (cfr)
---[Information] [18.08.2014 14:52:35] x264 [info]: using SAR=1/1
---[Information] [18.08.2014 14:52:35] x264 [info]: using cpu capabilities: MMX2 SSE2Fast SSSE3 SSE4.2
---[Information] [18.08.2014 14:52:35] x264 [info]: profile High, level 4.1
---[Information] [19.08.2014 0:47:53] x264 [info]: frame I:1017 Avg QP:22.28 size: 92940
---[Information] [19.08.2014 0:47:53] x264 [info]: frame P:27963 Avg QP:23.55 size: 56423
---[Information] [19.08.2014 0:47:53] x264 [info]: frame B:108214 Avg QP:25.46 size: 29878
---[Information] [19.08.2014 0:47:53] x264 [info]: consecutive B-frames: 1.1% 1.3% 5.0% 24.8% 16.4% 40.6% 5.6% 2.1% 3.0%
---[Information] [19.08.2014 0:47:53] x264 [info]: mb I I16..4: 3.6% 85.9% 10.4%
---[Information] [19.08.2014 0:47:53] x264 [info]: mb P I16..4: 1.3% 37.9% 2.4% P16..4: 30.6% 19.7% 6.9% 0.0% 0.0% skip: 1.2%
---[Information] [19.08.2014 0:47:53] x264 [info]: mb B I16..4: 0.2% 6.2% 0.3% B16..8: 44.2% 15.1% 3.6% direct:13.0% skip:17.4% L0:45.1% L1:45.7% BI: 9.3%
---[Information] [19.08.2014 0:47:53] x264 [info]: 8x8 transform intra:91.1% inter:72.0%
---[Information] [19.08.2014 0:47:53] x264 [info]: coded y,uvDC,uvAC intra: 93.6% 62.1% 14.3% inter: 52.0% 32.4% 0.4%
---[Information] [19.08.2014 0:47:53] x264 [info]: i16 v,h,dc,p: 53% 16% 12% 19%
---[Information] [19.08.2014 0:47:53] x264 [info]: i8 v,h,dc,ddl,ddr,vr,hd,vl,hu: 8% 7% 9% 10% 15% 13% 13% 12% 13%
---[Information] [19.08.2014 0:47:53] x264 [info]: i4 v,h,dc,ddl,ddr,vr,hd,vl,hu: 11% 9% 3% 8% 15% 15% 14% 12% 13%
---[Information] [19.08.2014 0:47:53] x264 [info]: i8c dc,h,v,p: 40% 28% 21% 12%
---[Information] [19.08.2014 0:47:53] x264 [info]: Weighted P-Frames: Y:4.6% UV:2.3%
---[Information] [19.08.2014 0:47:53] x264 [info]: ref P L0: 39.7% 12.5% 19.1% 7.8% 6.5% 4.7% 4.2% 2.6% 2.6% 0.3% 0.0%
---[Information] [19.08.2014 0:47:53] x264 [info]: ref B L0: 69.9% 12.8% 6.8% 3.7% 2.8% 2.3% 1.3% 0.4%
---[Information] [19.08.2014 0:47:53] x264 [info]: ref B L1: 91.6% 8.4%
---[Information] [19.08.2014 0:47:53] x264 [info]: kb/s:6858.20
---[Information] [19.08.2014 0:47:53] encoded 137194 frames, 3.84 fps, 6858.20 kb/s
--[Information] [19.08.2014 0:47:53] Final statistics
---[Information] [19.08.2014 0:47:53] Constant Quality Mode: Quality 20 computed...
---[Information] [19.08.2014 0:47:53] Video Bitrate Obtained (approximate): 6859 kbit/s
--[Information] [19.08.2014 0:47:53] MediaInfo
---[Information] [19.08.2014 0:47:53] File: D:RipPrikljuchenija ravvina Jakova.1973.BDRipPrikljuchenija ravvina Jakova.1973.BDRip.720p.mkv
pb.wtf



Скачать Приключения Раввина Якова через торрент http://i65.fastpic.ru/big/2014/0920/86/d6d17e5886efca6e85d4cd05f41c2686.jpg Скачать фильм Приключения Раввина Якова через торрент бесплантно в хорошем качестве Описание: Пивер — законченный ортодокс и консерватор. Его не устраивает никакой цвет кожи, кроме белого. Также, по его мнению, ни одна ... 10 10 6
Info! Золотая раздача, скачанное не засчитывается.
Торрент: Зарегистрирован [2014-09-20 14:48] · скачан: 67 раз
Статус: √ проверено
Размер: 5.64 GB
Как cкачать? Как скачать Приключения Раввина Якова через торрент | qTorrent

% Раздел Тема Автор DL S | L
Фильмы до 2000 г. [ 2.41 GB ] Раввина Якова / Les Aventures de Rabbi Jacob [1973 BDRip] DUB MVO DVO AVO msltel Скачать
1 | 0
Фильмы [HD 720p, 1080p] (Хороший звук DUB, MVO) [ 11.62 GB ] Раввина Якова / Les Aventures de Rabbi Jacob [1973 BDRip 1080p] DUB MVO DVO AVO msltel Скачать
1 | 0

28-11-2019 20:33  

Отключить всю рекламу на сайте

    Дорогой пользователь! Огромная просьба, поблагодарите релизера, оцените раздачу и оставьте свои комментарий, если Вы скачали Приключения Раввина Якова через торрент бесплатно! Внесите свою лепту в развитие PiratBit!
    Комментировать посты могут только пользователи прошедшие не сложную регистрацию
    Показать сообщения:    

    Приключения Раввина Якова через торрент
    Скачать бесплатно Приключения Раввина Якова
    Приключения Раввина Якова скачать торрент
    Приключения Раввина Якова смотреть онлайн
    Cкачать фильм Приключения Раввина Якова бесплатно
    Приключения Раввина Якова скачать торрент в хорошем качестве
    Приключения Раввина Якова смотреть онлайн бесплатно в хорошем качестве


    Вы не можете начинать темы
    Вы не можете отвечать на сообщения
    Вы не можете редактировать свои сообщения
    Вы не можете удалять свои сообщения
    Вы не можете голосовать в опросах
    Вы не можете прикреплять файлы к сообщениям
    Вы можете скачивать файлы