Ссылка на приватное зеркало нашего сайта всего за 1$. Внимание количество ограничено!!!

2 сезон

iTunes

1 сезон

1

iTunes

iTunes

iTunes

1 сезон

RePack

30

ИГРА 18+

pack

ВАЖНО

!!Акция!!

Alien_RageХит недели

RePack

MK11
pack

Забери бонус

RePack

jed

!!Акция!!

Alien_Rage

RePack

fifa19

RePack

Assassins Creed: Odyssey

RePack

NEED FOR SPEED™ PAYBACK

4 сезон

9 сезон

Бесстыжие 9 сезон

Все сериалы

все сериалы на PB.wtf

RePack

FAR CRY 5
  

Приключения Раввина Якова / Les Aventures de Rabbi Jacob (Жерар Ури) [1973г., Комедия, приключения, BDRip 1080p] DUB, MVO, DVO, AVO pb.wtf

Приключения Раввина Якова через торрент pb.wtf

Размер: 11.62 GB | Добавлен: 6 лет 1 мес. назад | Торрент скачан:76 раз
Скачать  

20-09-2014 14:55 Приключения Раввина Якова Скачать торрент  

Приключения Раввина Якова / Les Aventures de Rabbi Jacob
Релиз от: msltel

Год выпуска: 1973
Страна: Франция, Италия
Жанр: Комедия, приключения
Продолжительность: 01:35:22
Перевод: Дублированный, профессиональный многоголосый, профессиональный двухголосый, авторский
Субтитры: Русские, английские (все отдельно)

Режиссёр: Жерар Ури

В ролях: Луи де Фюнес, Клод Жиро, Сьюзи Делер, Марсель Далио, Ренцо Монтаньяни, Джанет Брандт, Андре Фалькон, Ксавье Желен, Анри Гибе, Попек, Миу-Миу, Дениз Прованс, Жак Франсуа, Клод Пьеплю, Жорж Аде, Пол Бисцилиа, Филипп Бриго, Жерар Дармон, Ноэль Дарзаль, Мишель Дюпле, Роберт Дюрантон, Малек Катеб, Мишель Фортен, Мишлин Кан, Эль Кебир, Пьер Кулак, Аликс Махье, Катрин Маршалл, Жерар Мелки, Жан-Жак Моро, Ив Пено, Андре Пенверн, Дениз Перонн, Кэри Рик, Роже Риффар, Мишель Робен, Лайонел Спилман, Джейкоб Толедано, Андре Валарди, Доминик Зарди

Описание: Пивер — законченный ортодокс и консерватор. Его не устраивает никакой цвет кожи, кроме белого. Также, по его мнению, ни одна страна не может даже и близко стоять к родной Франции. Так что, это человек «величайшей гибкости» и понимания. И именно его угораздило влипнуть в историю, где замешаны сразу и полиция, и террористы,… и евреи. По ходу действа наш протагонист окажется в самых уморительных ситуациях в столь же неожиданных декорациях, как, например, завод по производству жевательной резинки или еврейский квартал, откуда он неизменно найдет выход. Не зря же Луи признан великим французским комиком.



Качество: BDRip 1080p [Исходник от Igorella87] Сравнение с исходником
Формат: MKV
Видео кодек: H.264
Аудио кодек: AC3,DTS
Видео: 1808x1080, 14.4 Mbps, 23.976 кадра/сек
Аудио 1: русский, AC3, 192 kbps, 2 ch, 48 kHz [Дублированный, Киностудия им. Довженко]
Аудио 2: русский, AC3, 384 kbps, 6 ch, 48 kHz [Профессиональный многоголосый]
Аудио 3: русский, AC3, 192 kbps, 2 ch, 48 kHz [Профессиональный многоголосый, ОРТ]
Аудио 4: русский, AC3, 192 kbps, 2 ch, 48 kHz [Профессиональный двухголосый, Фильм-экспорт]
Аудио 5: русский, AC3, 192 kbps, 2 ch, 48 kHz [Авторский, Виктор Махонько]
Аудио 6: французский, DTS, 1509 kbps, 6 ch, 48 kHz [Оригинал]
Золотой глобус, 1975 год
Номинации (1):
Лучший иностранный фильм — «Франция»
Общее
Уникальный идентификатор : 182519340860945968658341221463168689165 (0x894FF2473B0423D3B4CAD8A0A2F0A40D)
Полное имя : D:VideoPrikljuchenija ravvina Jakova.1973.BDRip.1080p.mkv
Формат : Matroska
Версия формата : Version 4 / Version 2
Размер файла : 11,6 Гбайт
Продолжительность : 1 ч. 35 м.
Общий поток : 17,4 Мбит/сек
Дата кодирования : UTC 2014-08-21 05:12:26
Программа кодирования : mkvmerge v6.9.1 ('Blue Panther') 64bit built on Apr 18 2014 18:23:38
Библиотека кодирования : libebml v1.3.0 + libmatroska v1.4.1

Видео
Идентификатор : 1
Формат : AVC
Формат/Информация : Advanced Video Codec
Профиль формата : High@L4.1
Параметр CABAC формата : Да
Параметр ReFrames формата : 4 кадра
Идентификатор кодека : V_MPEG4/ISO/AVC
Продолжительность : 1 ч. 35 м.
Битрейт : 14,4 Мбит/сек
Ширина : 1808 пикселей
Высота : 1080 пикселей
Соотношение сторон : 1,674
Режим частоты кадров : Постоянный
Частота кадров : 23,976 кадра/сек
Цветовое пространство : YUV
Субдискретизация насыщенности : 4:2:0
Битовая глубина : 8 бит
Тип развёртки : Прогрессивная
Бит/(Пиксели*Кадры) : 0.308
Размер потока : 9,62 Гбайт (83%)
Заголовок : BDRip -- STarankov
Библиотека кодирования : x264 core 142 r2431 ac76440
Настройки программы : cabac=1 / ref=4 / deblock=1:-1:-1 / analyse=0x3:0x113 / me=umh / subme=10 / psy=1 / psy_rd=1.00:0.15 / mixed_ref=1 / me_range=32 / chroma_me=1 / trellis=2 / 8x8dct=1 / cqm=0 / deadzone=21,11 / fast_pskip=0 / chroma_qp_offset=-3 / threads=6 / lookahead_threads=1 / sliced_threads=0 / nr=0 / decimate=1 / interlaced=0 / bluray_compat=0 / constrained_intra=0 / bframes=8 / b_pyramid=2 / b_adapt=2 / b_bias=0 / direct=1 / weightb=1 / open_gop=0 / weightp=2 / keyint=230 / keyint_min=23 / scenecut=40 / intra_refresh=0 / rc_lookahead=40 / rc=crf / mbtree=0 / crf=20.9 / qcomp=0.60 / qpmin=0 / qpmax=69 / qpstep=4 / vbv_maxrate=40000 / vbv_bufsize=50000 / crf_max=0.0 / nal_hrd=none / filler=0 / ip_ratio=1.40 / pb_ratio=1.30 / aq=1:1.00
Язык : French
Default : Да
Forced : Нет

Аудио #1
Идентификатор : 2
Формат : AC-3
Формат/Информация : Audio Coding 3
Расширение режима : CM (complete main)
Параметр Endianness формата : Big
Идентификатор кодека : A_AC3
Продолжительность : 1 ч. 35 м.
Вид битрейта : Постоянный
Битрейт : 192 Кбит/сек
Каналы : 2 канала
Расположение каналов : Front: L R
Частота : 48,0 КГц
Битовая глубина : 16 бит
Метод сжатия : С потерями
Размер потока : 131 Мбайт (1%)
Заголовок : DUB (Киностудия им. Довженко)
Язык : Russian
Default : Да
Forced : Нет

Аудио #2
Идентификатор : 3
Формат : AC-3
Формат/Информация : Audio Coding 3
Расширение режима : CM (complete main)
Параметр Endianness формата : Big
Идентификатор кодека : A_AC3
Продолжительность : 1 ч. 35 м.
Вид битрейта : Постоянный
Битрейт : 384 Кбит/сек
Каналы : 6 каналов
Расположение каналов : Front: L C R, Side: L R, LFE
Частота : 48,0 КГц
Битовая глубина : 16 бит
Метод сжатия : С потерями
Размер потока : 262 Мбайт (2%)
Заголовок : MVO
Язык : Russian
Default : Нет
Forced : Нет

Аудио #3
Идентификатор : 4
Формат : AC-3
Формат/Информация : Audio Coding 3
Расширение режима : CM (complete main)
Параметр Endianness формата : Big
Идентификатор кодека : A_AC3
Продолжительность : 1 ч. 35 м.
Вид битрейта : Постоянный
Битрейт : 192 Кбит/сек
Каналы : 2 канала
Расположение каналов : Front: L R
Частота : 48,0 КГц
Битовая глубина : 16 бит
Метод сжатия : С потерями
Размер потока : 131 Мбайт (1%)
Заголовок : MVO (OPT)
Язык : Russian
Default : Нет
Forced : Нет

Аудио #4
Идентификатор : 5
Формат : AC-3
Формат/Информация : Audio Coding 3
Расширение режима : CM (complete main)
Параметр Endianness формата : Big
Идентификатор кодека : A_AC3
Продолжительность : 1 ч. 35 м.
Вид битрейта : Постоянный
Битрейт : 192 Кбит/сек
Каналы : 2 канала
Расположение каналов : Front: L R
Частота : 48,0 КГц
Битовая глубина : 16 бит
Метод сжатия : С потерями
Размер потока : 131 Мбайт (1%)
Заголовок : DVO (Фильм-экспорт)
Язык : Russian
Default : Нет
Forced : Нет

Аудио #5
Идентификатор : 6
Формат : AC-3
Формат/Информация : Audio Coding 3
Расширение режима : CM (complete main)
Параметр Endianness формата : Big
Идентификатор кодека : A_AC3
Продолжительность : 1 ч. 35 м.
Вид битрейта : Постоянный
Битрейт : 192 Кбит/сек
Каналы : 2 канала
Расположение каналов : Front: L R
Частота : 48,0 КГц
Битовая глубина : 16 бит
Метод сжатия : С потерями
Размер потока : 131 Мбайт (1%)
Заголовок : AVO (Виктор Махонько)
Язык : Russian
Default : Нет
Forced : Нет

Аудио #6
Идентификатор : 7
Формат : DTS
Формат/Информация : Digital Theater Systems
Режим : 16
Параметр Endianness формата : Big
Идентификатор кодека : A_DTS
Продолжительность : 1 ч. 35 м.
Вид битрейта : Постоянный
Битрейт : 1509 Кбит/сек
Каналы : 6 каналов
Расположение каналов : Front: L C R, Side: L R, LFE
Частота : 48,0 КГц
Битовая глубина : 16 бит
Метод сжатия : С потерями
Размер потока : 1,01 Гбайт (9%)
Заголовок : Original
Язык : French
Default : Нет
Forced : Нет

Текст #1
Идентификатор : 8
Формат : UTF-8
Идентификатор кодека : S_TEXT/UTF8
Идентификатор кодека/Информация : UTF-8 Plain Text
Заголовок : русский
Язык : Russian
Default : Нет
Forced : Нет

Текст #2
Идентификатор : 9
Формат : UTF-8
Идентификатор кодека : S_TEXT/UTF8
Идентификатор кодека/Информация : UTF-8 Plain Text
Заголовок : английский
Default : Нет
Forced : Нет

---[Information] [20.08.2014 7:28:49] raw [info]: 1808x1080p 1:1 @ 24000/1001 fps (cfr)
---[Information] [20.08.2014 7:28:49] x264 [info]: using SAR=1/1
---[Information] [20.08.2014 7:28:49] x264 [info]: using cpu capabilities: MMX2 SSE2Fast SSSE3 SSE4.2
---[Information] [20.08.2014 7:28:49] x264 [info]: profile High, level 4.1
---[Information] [20.08.2014 21:24:27] x264 [info]: frame I:881 Avg QP:22.49 size:149465
---[Information] [20.08.2014 21:24:27] x264 [info]: frame P:27752 Avg QP:23.56 size:105112
---[Information] [20.08.2014 21:24:27] x264 [info]: frame B:108561 Avg QP:25.57 size: 69302
---[Information] [20.08.2014 21:24:27] x264 [info]: consecutive B-frames: 1.1% 1.5% 5.0% 22.8% 15.4% 41.7% 6.5% 3.0% 2.9%
---[Information] [20.08.2014 21:24:27] x264 [info]: mb I I16..4: 3.2% 92.5% 4.3%
---[Information] [20.08.2014 21:24:27] x264 [info]: mb P I16..4: 2.1% 57.7% 1.5% P16..4: 22.1% 12.1% 3.3% 0.0% 0.0% skip: 1.2%
---[Information] [20.08.2014 21:24:27] x264 [info]: mb B I16..4: 0.6% 14.0% 0.2% B16..8: 40.8% 14.8% 3.0% direct:15.6% skip:11.0% L0:45.2% L1:45.5% BI: 9.3%
---[Information] [20.08.2014 21:24:27] x264 [info]: 8x8 transform intra:94.1% inter:81.9%
---[Information] [20.08.2014 21:24:27] x264 [info]: coded y,uvDC,uvAC intra: 90.9% 53.6% 6.5% inter: 61.9% 40.6% 0.2%
---[Information] [20.08.2014 21:24:27] x264 [info]: i16 v,h,dc,p: 36% 20% 17% 27%
---[Information] [20.08.2014 21:24:27] x264 [info]: i8 v,h,dc,ddl,ddr,vr,hd,vl,hu: 11% 8% 9% 9% 13% 12% 12% 12% 14%
---[Information] [20.08.2014 21:24:27] x264 [info]: i4 v,h,dc,ddl,ddr,vr,hd,vl,hu: 13% 8% 3% 8% 15% 16% 14% 11% 13%
---[Information] [20.08.2014 21:24:27] x264 [info]: i8c dc,h,v,p: 41% 29% 21% 9%
---[Information] [20.08.2014 21:24:27] x264 [info]: Weighted P-Frames: Y:3.1% UV:1.6%
---[Information] [20.08.2014 21:24:27] x264 [info]: ref P L0: 46.8% 12.9% 25.8% 13.6% 0.9% 0.0%
---[Information] [20.08.2014 21:24:27] x264 [info]: ref B L0: 83.7% 13.1% 3.2%
---[Information] [20.08.2014 21:24:27] x264 [info]: ref B L1: 89.2% 10.8%
---[Information] [20.08.2014 21:24:27] x264 [info]: kb/s:14780.81
---[Information] [20.08.2014 21:24:27] encoded 137194 frames, 2.74 fps, 14780.81 kb/s
--[Information] [20.08.2014 21:24:30] Final statistics
---[Information] [20.08.2014 21:24:30] Constant Quality Mode: Quality 20 computed...
---[Information] [20.08.2014 21:24:30] Video Bitrate Obtained (approximate): 14782 kbit/s
--[Information] [20.08.2014 21:24:30] MediaInfo
---[Information] [20.08.2014 21:24:30] File: D:RipPrikljuchenija ravvina Jakova.1973.BDRipPrikljuchenija ravvina Jakova.1973.BDRip.1080p.mkv
pb.wtf



Скачать Приключения Раввина Якова через торрент http://i65.fastpic.ru/big/2014/0920/86/d6d17e5886efca6e85d4cd05f41c2686.jpg Скачать фильм Приключения Раввина Якова через торрент бесплантно в хорошем качестве Описание: Пивер — законченный ортодокс и консерватор. Его не устраивает никакой цвет кожи, кроме белого. Также, по его мнению, ни одна ... 10 10 4
Info! Золотая раздача, скачанное не засчитывается.
Торрент: Зарегистрирован [2014-09-20 14:55] · скачан: 76 раз
Статус: √ проверено
Размер: 11.62 GB
Как cкачать? Как скачать Приключения Раввина Якова через торрент | qTorrent

% Раздел Тема Автор DL S | L
Фильмы до 2000 г. [ 2.41 GB ] Раввина Якова / Les Aventures de Rabbi Jacob [1973 BDRip] DUB MVO DVO AVO msltel Скачать
1 | 0
Фильмы [HD 720p, 1080p] (Хороший звук DUB, MVO) [ 5.64 GB ] Раввина Якова / Les Aventures de Rabbi Jacob [1973 BDRip 720p] DUB MVO DVO AVO msltel Скачать
1 | 0

28-11-2019 20:33  

Отключить всю рекламу на сайте

20-09-2014 16:20 Приключения Раввина Якова Скачать торрент  

помню как в детстве смотрел его с дедом и соседом евреем. Сосед ржал от души)pb.wtf



20-09-2014 16:37 Приключения Раввина Якова Скачать торрент  

да киньчик прикольный ))) надо пересмотреть )))pb.wtf



    Дорогой пользователь! Огромная просьба, поблагодарите релизера, оцените раздачу и оставьте свои комментарий, если Вы скачали Приключения Раввина Якова через торрент бесплатно! Внесите свою лепту в развитие PiratBit!
    Комментировать посты могут только пользователи прошедшие не сложную регистрацию
    Показать сообщения:    

    Приключения Раввина Якова через торрент
    Скачать бесплатно Приключения Раввина Якова
    Приключения Раввина Якова скачать торрент
    Приключения Раввина Якова смотреть онлайн
    Cкачать фильм Приключения Раввина Якова бесплатно
    Приключения Раввина Якова скачать торрент в хорошем качестве
    Приключения Раввина Якова смотреть онлайн бесплатно в хорошем качестве


    Вы не можете начинать темы
    Вы не можете отвечать на сообщения
    Вы не можете редактировать свои сообщения
    Вы не можете удалять свои сообщения
    Вы не можете голосовать в опросах
    Вы не можете прикреплять файлы к сообщениям
    Вы можете скачивать файлы