Достать ножи: Стеклянная луковица

MVO

Добыча

Дубляж

Уэнсдэй

1 сезон

Тор

Дубляж

13 клиническая

1 сезон

Жестокая ночь

MVO

Одни из нас

1 сезон

Deluxe

pack

Рекомендуем

30

Пиратка

ВАЖНО

ВАЖНО

Ghostwire

Пиратка

jed

RePack

nioh2

RePack

RDR2

RePack

NEED FOR SPEED™ PAYBACK

RePack

скачать торрент

Кинопоиск HD

Острые козырьки 6 сезон

6 сезон

FAR CRY 6

RePack

скачать торрент

Лицензия

скачать торрент

MVO

1

1 сезон

скачать торрент

1 сезон

скачать торрент

Лицензия

  

Тёмная долина / Das finstere Tal (Андреас Прохазка / Andreas Prochaska) [2014, Австрия, Германия, вестерн, BDRip 720p,Профессиональный многоголосый [Лицензия]

Тёмная долина через торрент pb.wtf

Размер: 4.68 GB | Добавлен: 8 лет 4 мес. назад | Торрент скачан:348 раз
Смотреть онлайн | Скачать | Поддержите нас   

20-09-2014 15:16 Тёмная долина Скачать торрент  

Тёмная долина / Das finstere Tal

Год выпуска: 2014
Страна:Австрия, Германия
Жанр: вестерн
Продолжительность: 01:54:44
Перевод: Профессиональный многоголосый [Лицензия]
Режиссер: Андреас Прохазка / Andreas Prochaska
В ролях:
Сэм Райли (Greider), Тобиас Моретти (Hans Brenner), Хельмут Хеуслер (Hubert Brenner), Мартин Лойтгеб (Otto Brenner), Йоханнес Николусси (Rudolf Brenner), Клеменс Шик (Luis Brenner), Флориан Брюкнер (Edi Brenner), Ганс-Михаэль Реберг (Brenner), Эрвин Штайнхауэр (Breiser), Франц Ксавер Брюкнер (Franz), Ксения Ассенца (Maria), Кармен Гратль (Gaderin)

Описание:
Тайными путями одинокий всадник пробирается в маленький городок высоко в Альпах. Никто не знает, откуда прибыл незнакомец и чего он хочет. Но в одном жители городка уверены - они не хотят, чтобы он оставался здесь.
Рейтинг:


Качество: BDRip 720p
Формат: MKV
Видео кодек: AVC
Аудио кодек:AC3
Видео: AVC, 1280x544 (2.35:1), 5400 kbps, 24 fps, 0,323 bpp
Аудио: AC3 / 5.1 / 48 kHz / 448 kbps / 16 bit
Навигация по главам: есть

Код:

General
Unique ID                                : 176308493356702416009848986957112794989 (0x84A3C7DAAE2A83D1AB3E5A75B229DF6D)
Complete name                            : H:\Futuron\Кино\Das finstere Tal.2014.BDRip.720p.mkv
Format                                   : Matroska
Format version                           : Version 4 / Version 2
File size                                : 4.68 GiB
Duration                                 : 1h 54mn
Overall bit rate                         : 5 841 Kbps
Movie name                               : The Dark Valley 2014
Encoded date                             : UTC 2014-09-19 23:32:51
Writing application                      : mkvmerge v6.8.0 ('Theme for Great Cities') 32bit built on Mar  2 2014 21:27:07
Writing library                          : libebml v1.3.0 + libmatroska v1.4.1

Video
ID                                       : 1
Format                                   : AVC
Format/Info                              : Advanced Video Codec
Format profile                           : [email protected]
Format settings, CABAC                   : Yes
Format settings, ReFrames                : 12 frames
Codec ID                                 : V_MPEG4/ISO/AVC
Duration                                 : 1h 54mn
Bit rate                                 : 5 400 Kbps
Width                                    : 1 280 pixels
Height                                   : 544 pixels
Display aspect ratio                     : 2.35:1
Frame rate                               : 24.000 fps
Color space                              : YUV
Chroma subsampling                       : 4:2:0
Bit depth                                : 8 bits
Scan type                                : Progressive
Bits/(Pixel*Frame)                       : 0.323
Stream size                              : 4.23 GiB (90%)
Writing library                          : x264 core 142 r2479kMod dd79a61
Encoding settings                        : cabac=1 / ref=12 / deblock=1:-3:-3 / analyse=0x3:0x133 / me=umh / subme=11 / psy=1 / fade_compensate=0.00 / psy_rd=1.08:0.00 / mixed_ref=1 / me_range=24 / chroma_me=1 / trellis=2 / 8x8dct=1 / cqm=0 / deadzone=21,11 / fast_pskip=0 / chroma_qp_offset=-2 / threads=6 / lookahead_threads=1 / sliced_threads=0 / nr=0 / decimate=0 / interlaced=0 / bluray_compat=0 / constrained_intra=0 / fgo=0 / bframes=11 / b_pyramid=2 / b_adapt=2 / b_bias=0 / direct=3 / weightb=1 / open_gop=0 / weightp=2 / keyint=250 / keyint_min=24 / scenecut=40 / intra_refresh=0 / rc_lookahead=0 / rc=2pass / mbtree=0 / bitrate=5400 / ratetol=1.0 / qcomp=0.70 / qpmin=0 / qpmax=69 / qpstep=4 / cplxblur=20.0 / qblur=0.5 / vbv_maxrate=38000 / vbv_bufsize=30000 / nal_hrd=none / filler=0 / ip_ratio=1.40 / pb_ratio=1.30 / aq=1:0.68
Language                                 : English
Default                                  : Yes
Forced                                   : No
Color primaries                          : BT.709-5, BT.1361, IEC 61966-2-4, SMPTE RP177
Transfer characteristics                 : BT.709-5, BT.1361
Matrix coefficients                      : BT.709-5, BT.1361, IEC 61966-2-4 709, SMPTE RP177

Audio
ID                                       : 2
Format                                   : AC-3
Format/Info                              : Audio Coding 3
Mode extension                           : CM (complete main)
Codec ID                                 : A_AC3
Duration                                 : 1h 54mn
Bit rate mode                            : Constant
Bit rate                                 : 448 Kbps
Channel(s)                               : 6 channels
Channel positions                        : Front: L C R, Side: L R, LFE
Sampling rate                            : 48.0 KHz
Bit depth                                : 16 bits
Compression mode                         : Lossy
Stream size                              : 368 MiB (8%)
Default                                  : Yes
Forced                                   : No

Menu
00:00:00.000                             : en:00:00:00.000
00:09:40.250                             : en:00:09:40.250
00:20:09.708                             : en:00:20:09.708
00:28:27.000                             : en:00:28:27.000
00:39:48.625                             : en:00:39:48.625
00:49:15.000                             : en:00:49:15.000
00:56:12.833                             : en:00:56:12.833
01:03:55.542                             : en:01:03:55.542
01:08:34.083                             : en:01:08:34.083
01:21:32.958                             : en:01:21:32.958
01:33:25.708                             : en:01:33:25.708
01:49:57.333                             : en:01:49:57.333




Скачать Тёмная долина через торрент http://i4-imageban-ru.translate.goog/out/2014/09/20/d47d04aec9ff235576f84af3136de99f.jpg Скачать, смотреть онлайн Тёмная долина бесплантно в хорошем качестве Описание: Тайными путями одинокий всадник пробирается в маленький городок высоко в Альпах. Никто не знает, откуда прибыл незнакомец и чего ... 10 10 8
Торрент: Зарегистрирован [2014-09-20 15:16] · скачан: 348 раз
Статус: √ проверено
Размер: 4.68 GB
Как cкачать? Как скачать Тёмная долина через торрент | UTorrent

% Раздел Тема Автор DL S | L
Фильмы 2014 [DVDrip, WEB-DLRip, HDrip] [ 1.37 GB ] Тёмная долина / Das finstere Tal | Лицензия | HDRip MVO [Лицензия GEKADOL Скачать
1 | 0
Фильмы 2014 [DVDrip, WEB-DLRip, HDrip] [ 2.05 GB ] Тёмная долина / Das finstere Tal | Лицензия | HDRip MVO - Лицензия _KaisiK_ Скачать
1 | 0
Фильмы [HD 720p, 1080p] (Хороший звук DUB, MVO) [ 8.45 GB ] Тёмная долина / Das finstere Tal | | 1080p, Профессиональный, многоголосый _denis_100 Скачать
1 | 0

28-11-2019 20:33  


Отключить вcю реклaмy на сайте, в т.ч. и в плеере онлайн просмотра!

    Дорогой пользователь! Огромная просьба, поблагодарите релизера, оцените раздачу и оставьте свои комментарий, если Вы скачали Тёмная долина через торрент бесплатно!!
    Комментировать посты могут только пользователи прошедшие не сложную регистрацию
    Показать сообщения:    


    Тёмная долина через торрент
    Скачать бесплатно Тёмная долина
    Тёмная долина скачать торрент
    Тёмная долина смотреть онлайн
    Cкачать фильм Тёмная долина бесплатно
    Тёмная долина скачать торрент в хорошем качестве
    Тёмная долина смотреть онлайн бесплатно в хорошем качестве
    Вы не можете начинать темы
    Вы не можете отвечать на сообщения
    Вы не можете редактировать свои сообщения
    Вы не можете удалять свои сообщения
    Вы не можете голосовать в опросах
    Вы не можете прикреплять файлы к сообщениям
    Вы можете скачивать файлы
    Тёмная долина / Das finstere Tal [2014, Австрия, Германия, вестерн, BDRip 720p,Профессиональный многоголосый [Лицензия] смотреть онлайн, скачать торрент picoco.icu