Ссылка на приватное зеркало нашего сайта всего за 1$. Внимание количество ограничено!!!

2 сезон

iTunes

1 сезон

1

iTunes

iTunes

iTunes

1 сезон

RePack

30

ИГРА 18+

pack

ВАЖНО

!!Акция!!

Alien_RageХит недели

RePack

MK11
pack

Забери бонус

RePack

jed

!!Акция!!

Alien_Rage

RePack

fifa19

RePack

Assassins Creed: Odyssey

RePack

NEED FOR SPEED™ PAYBACK

4 сезон

9 сезон

Бесстыжие 9 сезон

Все сериалы

все сериалы на PB.wtf

RePack

FAR CRY 5
  

Как по маслу / Butter (Джим Филд Смит) [2011 г., комедия, BDRip 720p, MVO, лицензия] pb.wtf

Как по маслу через торрент pb.wtf

Размер: 4.71 GB | Добавлен: 7 лет 5 мес. назад | Торрент скачан:55 раз
Скачать  

29-04-2013 20:50 Как по маслу Скачать торрент  

Как по маслу / Butter

«Комедия о сексе, власти и богатстве.»

Год выпуска: 2011
Страна: США
Жанр: комедия
Продолжительность: 01:30:32
Перевод: Профессиональный многоголосый, Лицензия
Субтитры: Нет

Режиссер: Джим Филд Смит
Продюссер: Майкл Де Лука, Дженнифер Гарнер, Джулиана Джейнс
Сценарий: Джейсон А. Микаллеф

Премьера в мире: 4 сентября 2011



Мировой рейтинг IMDB 6.10 (8 429)



В ролях: Дженнифер Гарнер, Тай Бурелл, Оливия Уайлд, Роб Кордри, Эшли Грин, Алисия Сильверстоун, Хью Джекман, Кристен Шол, Прюитт Тэйлор Винс, Яра Шахиди,

Описание: В фильме переплетено несколько сюжетных линий, отчаянный юмор о сексе и политике, и… много скульптур из сливочного масла.


Качество: BDRip 720p
Формат: MKV
Видео кодек: H.264
Аудио кодек: AC3/DTS
Видео: 1280x544 (2.35:1), 23.976 fps, 5 500 Kbps (0.329 bit/pixel)
Аудио#1: AC-3, 48.0 KHz, 6 ch, 448 Kbps, CBR (Russian)
Аудио#2: DTS, 48.0 KHz, 6 ch, 1 510 Kbps, CBR (English)
Субтитры: English








Общее
Уникальный идентификатор : 202228677326670222635292374396391809560 (0x9823D397522FA765B93201AC38266218)
Полное имя : E:Как по маслу.2011.BDRip.720p..mkv
Формат : Matroska
Версия формата : Version 2
Размер файла : 4,71 Гбайт
Продолжительность : 1 ч. 30 м.
Общий поток : 7455 Кбит/сек
Название фильма : Как по маслу
Дата кодирования : UTC 2012-12-14 17:35:31
Программа кодирования : mkvmerge v5.3.0 ('I could have danced') built on Feb 9 2012 10:38:07
Библиотека кодирования : libebml v1.2.3 + libmatroska v1.3.0

Видео
Идентификатор : 1
Формат : AVC
Формат/Информация : Advanced Video Codec
Профиль формата : High@L4.1
Параметр CABAC формата : Да
Параметр ReFrames формата : 9 кадров
Идентификатор кодека : V_MPEG4/ISO/AVC
Продолжительность : 1 ч. 30 м.
Битрейт : 5500 Кбит/сек
Ширина : 1280 пикселей
Высота : 544 пикселя
Соотношение сторон : 2,35:1
Режим частоты кадров : Постоянный
Частота кадров : 23,976 кадра/сек
Цветовое пространство : YUV
Субдискретизация насыщенности : 4:2:0
Битовая глубина : 8 бит
Тип развёртки : Прогрессивная
Бит/(Пиксели*Кадры) : 0.329
Размер потока : 3,38 Гбайт (72%)
Заголовок : Kak.po.maslu.P.2011.BDRip.720p.UnionGang.tv
Библиотека кодирования : x264 core 119 r2106 07efeb4
Настройки программы : cabac=1 / ref=9 / deblock=1:-3:-3 / analyse=0x3:0x113 / me=umh / subme=11 / psy=1 / psy_rd=1.00:0.10 / mixed_ref=1 / me_range=32 / chroma_me=1 / trellis=2 / 8x8dct=1 / cqm=0 / deadzone=21,11 / fast_pskip=0 / chroma_qp_offset=-3 / threads=6 / sliced_threads=0 / nr=0 / decimate=1 / interlaced=0 / bluray_compat=0 / constrained_intra=0 / bframes=7 / b_pyramid=2 / b_adapt=2 / b_bias=0 / direct=3 / weightb=1 / open_gop=0 / weightp=2 / keyint=250 / keyint_min=23 / scenecut=40 / intra_refresh=0 / rc=2pass / mbtree=0 / bitrate=5500 / ratetol=1.0 / qcomp=0.65 / qpmin=0 / qpmax=69 / qpstep=4 / cplxblur=20.0 / qblur=0.5 / ip_ratio=1.40 / pb_ratio=1.30 / aq=1:1.00
Язык : English
Default : Да
Forced : Нет

Аудио #1
Идентификатор : 2
Формат : AC-3
Формат/Информация : Audio Coding 3
Расширение режима : CM (complete main)
Параметр Endianness формата : Big
Идентификатор кодека : A_AC3
Продолжительность : 1 ч. 30 м.
Вид битрейта : Постоянный
Битрейт : 448 Кбит/сек
Каналы : 6 каналов
Расположение каналов : Front: L C R, Side: L R, LFE
Частота : 48,0 КГц
Битовая глубина : 16 бит
Метод сжатия : С потерями
Размер потока : 290 Мбайт (6%)
Язык : Russian
Default : Да
Forced : Да

Аудио #2
Идентификатор : 3
Формат : DTS
Формат/Информация : Digital Theater Systems
Режим : 16
Параметр Endianness формата : Big
Идентификатор кодека : A_DTS
Продолжительность : 1 ч. 30 м.
Вид битрейта : Постоянный
Битрейт : 1509 Кбит/сек
Каналы : 6 каналов
Расположение каналов : Front: L C R, Side: L R, LFE
Частота : 48,0 КГц
Битовая глубина : 24 бит
Метод сжатия : С потерями
Размер потока : 977 Мбайт (20%)
Язык : English
Default : Нет
Forced : Нет

Текст
Идентификатор : 4
Формат : UTF-8
Идентификатор кодека : S_TEXT/UTF8
Идентификатор кодека/Информация : UTF-8 Plain Text
Язык : English
Default : Нет
Forced : Нет

Меню
00:00:00.000 : en:00:00:00.000
00:03:56.403 : en:00:03:56.403
00:08:29.008 : en:00:08:29.008
00:14:01.132 : en:00:14:01.132
00:19:24.330 : en:00:19:24.330
00:27:29.523 : en:00:27:29.523
00:34:38.451 : en:00:34:38.451
00:39:19.107 : en:00:39:19.107
00:48:38.165 : en:00:48:38.165
00:56:29.553 : en:00:56:29.553
01:03:08.702 : en:01:03:08.702
01:09:41.469 : en:01:09:41.469
01:14:09.987 : en:01:14:09.987
01:20:44.173 : en:01:20:44.173
01:22:31.113 : en:01:22:31.113
01:24:22.057 : en:01:24:22.057


Как по маслу скачать торрент


pb.wtf



Скачать Как по маслу через торрент http://pic.kartinco.top/images/2/2caxbrigwa.png Скачать фильм Как по маслу через торрент бесплантно в хорошем качестве Описание: В фильме переплетено несколько сюжетных линий, отчаянный юмор о сексе и политике, и… много скульптур из сливочного ... 10 10 6
Info! Золотая раздача, скачанное не засчитывается.
Торрент: Зарегистрирован [2013-04-29 20:50] · скачан: 55 раз
Статус: √ проверено
Размер: 4.71 GB
Как cкачать? Как скачать Как по маслу через торрент | qTorrent

% Раздел Тема Автор DL S | L
Фильмы 2011 [ 1.46 GB ] Как по маслу / Butter [2011 HDRip MVO лицензия] Ворон Скачать
3 | 0
Фильмы (Blu-ray, BD-Remux, HDDVD) [ 20.22 GB ] Как по маслу / Butter [2011 Blu-Ray MVO лицензия] Pavlin Скачать
1 | 1

28-11-2019 20:33  

Отключить всю рекламу на сайте

    Дорогой пользователь! Огромная просьба, поблагодарите релизера, оцените раздачу и оставьте свои комментарий, если Вы скачали Как по маслу через торрент бесплатно! Внесите свою лепту в развитие PiratBit!
    Комментировать посты могут только пользователи прошедшие не сложную регистрацию
    Показать сообщения:    

    Как по маслу через торрент
    Скачать бесплатно Как по маслу
    Как по маслу скачать торрент
    Как по маслу смотреть онлайн
    Cкачать фильм Как по маслу бесплатно
    Как по маслу скачать торрент в хорошем качестве
    Как по маслу смотреть онлайн бесплатно в хорошем качестве


    Вы не можете начинать темы
    Вы не можете отвечать на сообщения
    Вы не можете редактировать свои сообщения
    Вы не можете удалять свои сообщения
    Вы не можете голосовать в опросах
    Вы не можете прикреплять файлы к сообщениям
    Вы можете скачивать файлы