Ссылка на приватное зеркало нашего сайта всего за 1$. Внимание количество ограничено!!!

2 сезон

iTunes

1 сезон

1

iTunes

iTunes

iTunes

1 сезон

RePack

30

ИГРА 18+

pack

ВАЖНО

!!Акция!!

Alien_RageХит недели

RePack

MK11
pack

Забери бонус

RePack

jed

!!Акция!!

Alien_Rage

RePack

fifa19

RePack

Assassins Creed: Odyssey

RePack

NEED FOR SPEED™ PAYBACK

4 сезон

9 сезон

Бесстыжие 9 сезон

Все сериалы

все сериалы на PB.wtf

RePack

FAR CRY 5
  

Наблюдатель / The Watcher (Джо Чарбэник / Joe Charbanic) [2000, США, триллер, криминал, детектив, HDDVDRip 1080p, Дублированный / Профессиональный многоголосый / Авторский (одноголосый) pb.wtf

Наблюдатель через торрент pb.wtf

Размер: 7.1 GB | Добавлен: 6 лет назад | Торрент скачан:57 раз
Скачать  

20-09-2014 20:27 Наблюдатель Скачать торрент  

Наблюдатель / The Watcher

Год выпуска: 2000
Страна:США
Жанр: триллер, криминал, детектив
Продолжительность: 01:36:13
Перевод: Дублированный / Профессиональный многоголосый / Авторский (одноголосый)
Субтитры: русские,английские
Режиссер: Джо Чарбэник / Joe Charbanic
В ролях:
Джеймс Спэйдер (Campbell), Мариса Томей (Polly), Киану Ривз (Griffin), Эрни Хадсон (Ibby), Крис Эллис (Hollis), Роберт Чиккини (Mitch), Ивонн Найами (Lisa), Дженни МакШейн (Diana), Джина Александр (Sharon), Ребека Луиз Смит (Ellie), Джозеф Сикора (Skater), Джиллиан Петерсон (Jessica)

Описание:
Восемь лет агент ФБР Джоел Кэмпбелл выслеживал серийного убийцу. Однако не в силах больше постигать извращенную логику маньяка, травмированный физически и морально, после долгих лет тщетных поисков он оставляет службу и переезжает в другой город. Там Кэмпбелл надеется обрести покой и зажить по-новому.
Казалось бы, ничто не в силах помешать ему навсегда расстаться с ужасным прошлым. Но не успел он прожить на новом месте и нескольких месяцев, как по городу прокатывается волна зверских убийств, имеющих все тот же до ужаса знакомый почерк. Маньяк Дэвид Гриффин затевает с агентом ФБР опасную игру, ставка в которой - жизнь.
Рейтинг:


Качество: HDDVDRip 1080p
Формат: MKV
Видео кодек: AVC
Аудио кодек:AC3
Видео: AVC, 1920x1040 (16:9), 9153 kbps, 23,976 fps, 0,191 bpp
Аудио №1: русский / AC3 / 5.1 / 48 kHz / 384 kbps / 16 bit |Дублированный|
Аудио №2: русский / AC3 / 2.0 / 48 kHz / 192 kbps / 16 bit |Профессиональный многоголосый|
Аудио №3: русский / AC3 / 5.1 / 48 kHz / 384 kbps / 16 bit |Авторский одноголосый (Живов)|
Аудио №4: английский / AC3 / 5.1 / 48 kHz / 448 kbps / 16 bit
Навигация по главам: есть

Код:

General
Unique ID                                : 225993782082661947750406723002807272019 (0xAA04D1B820F7C2A79971F331FE26C253)
Complete name                            : H:\The.Watcher.2000.x264.HDDVDRip.1080p.NovaLan.mkv
Format                                   : Matroska
Format version                           : Version 4 / Version 2
File size                                : 7.10 GiB
Duration                                 : 1h 36mn
Overall bit rate                         : 10.6 Mbps
Movie name                               : The Watcher 2000 - NovaLan
Encoded date                             : UTC 2013-12-23 16:16:50
Writing application                      : mkvmerge v6.6.0 ('The Edge Of The In Between') built on Dec  1 2013 17:55:00
Writing library                          : libebml v1.3.0 + libmatroska v1.4.1

Video
ID                                       : 1
Format                                   : AVC
Format/Info                              : Advanced Video Codec
Format profile                           : High@L4.1
Format settings, CABAC                   : Yes
Format settings, ReFrames                : 4 frames
Codec ID                                 : V_MPEG4/ISO/AVC
Duration                                 : 1h 36mn
Bit rate                                 : 9 153 Kbps
Width                                    : 1 920 pixels
Height                                   : 1 040 pixels
Display aspect ratio                     : 16:9
Frame rate                               : 23.976 fps
Color space                              : YUV
Chroma subsampling                       : 4:2:0
Bit depth                                : 8 bits
Scan type                                : Progressive
Bits/(Pixel*Frame)                       : 0.191
Stream size                              : 6.01 GiB (85%)
Title                                    : Sergei7721
Writing library                          : x264 core 133 r2334 a3ac64b
Encoding settings                        : cabac=1 / ref=4 / deblock=1:-1:-1 / analyse=0x3:0x113 / me=umh / subme=10 / psy=1 / psy_rd=1.00:0.20 / mixed_ref=1 / me_range=32 / chroma_me=1 / trellis=2 / 8x8dct=1 / cqm=0 / deadzone=21,11 / fast_pskip=0 / chroma_qp_offset=-3 / threads=12 / lookahead_threads=1 / sliced_threads=0 / nr=0 / decimate=0 / interlaced=0 / bluray_compat=0 / constrained_intra=0 / bframes=6 / b_pyramid=2 / b_adapt=2 / b_bias=0 / direct=3 / weightb=1 / open_gop=0 / weightp=2 / keyint=240 / keyint_min=23 / scenecut=40 / intra_refresh=0 / rc_lookahead=40 / rc=2pass / mbtree=0 / bitrate=9153 / ratetol=1.0 / qcomp=0.60 / qpmin=0 / qpmax=69 / qpstep=4 / cplxblur=20.0 / qblur=0.5 / vbv_maxrate=50000 / vbv_bufsize=62500 / nal_hrd=none / ip_ratio=1.40 / pb_ratio=1.30 / aq=1:1.00
Language                                 : English
Default                                  : Yes
Forced                                   : No

Audio #1
ID                                       : 2
Format                                   : AC-3
Format/Info                              : Audio Coding 3
Mode extension                           : CM (complete main)
Codec ID                                 : A_AC3
Duration                                 : 1h 36mn
Bit rate mode                            : Constant
Bit rate                                 : 384 Kbps
Channel(s)                               : 6 channels
Channel positions                        : Front: L C R, Side: L R, LFE
Sampling rate                            : 48.0 KHz
Bit depth                                : 16 bits
Compression mode                         : Lossy
Stream size                              : 264 MiB (4%)
Language                                 : Russian
Default                                  : Yes
Forced                                   : No

Audio #2
ID                                       : 3
Format                                   : AC-3
Format/Info                              : Audio Coding 3
Mode extension                           : CM (complete main)
Codec ID                                 : A_AC3
Duration                                 : 1h 36mn
Bit rate mode                            : Constant
Bit rate                                 : 192 Kbps
Channel(s)                               : 2 channels
Channel positions                        : Front: L R
Sampling rate                            : 48.0 KHz
Bit depth                                : 16 bits
Compression mode                         : Lossy
Stream size                              : 132 MiB (2%)
Language                                 : Russian
Default                                  : No
Forced                                   : No

Audio #3
ID                                       : 4
Format                                   : AC-3
Format/Info                              : Audio Coding 3
Mode extension                           : CM (complete main)
Codec ID                                 : A_AC3
Duration                                 : 1h 36mn
Bit rate mode                            : Constant
Bit rate                                 : 384 Kbps
Channel(s)                               : 6 channels
Channel positions                        : Front: L C R, Side: L R, LFE
Sampling rate                            : 48.0 KHz
Bit depth                                : 16 bits
Compression mode                         : Lossy
Stream size                              : 264 MiB (4%)
Language                                 : Russian
Default                                  : No
Forced                                   : No

Audio #4
ID                                       : 5
Format                                   : AC-3
Format/Info                              : Audio Coding 3
Mode extension                           : CM (complete main)
Codec ID                                 : A_AC3
Duration                                 : 1h 36mn
Bit rate mode                            : Constant
Bit rate                                 : 448 Kbps
Channel(s)                               : 6 channels
Channel positions                        : Front: L C R, Side: L R, LFE
Sampling rate                            : 48.0 KHz
Bit depth                                : 16 bits
Compression mode                         : Lossy
Stream size                              : 308 MiB (4%)
Language                                 : English
Default                                  : No
Forced                                   : No

Text #1
ID                                       : 6
Format                                   : UTF-8
Codec ID                                 : S_TEXT/UTF8
Codec ID/Info                            : UTF-8 Plain Text
Language                                 : Russian
Default                                  : Yes
Forced                                   : No

Text #2
ID                                       : 7
Format                                   : UTF-8
Codec ID                                 : S_TEXT/UTF8
Codec ID/Info                            : UTF-8 Plain Text
Language                                 : English
Default                                  : No
Forced                                   : No

Menu
00:00:00.000                             : en:00:00:00.000
00:02:50.963                             : en:00:02:50.963
00:08:44.121                             : en:00:08:44.121
00:13:50.087                             : en:00:13:50.087
00:17:30.144                             : en:00:17:30.144
00:19:49.560                             : en:00:19:49.560
00:22:01.182                             : en:00:22:01.182
00:26:19.080                             : en:00:26:19.080
00:30:46.088                             : en:00:30:46.088
00:35:04.966                             : en:00:35:04.966
00:40:46.484                             : en:00:40:46.484
00:45:20.223                             : en:00:45:20.223
00:48:23.568                             : en:00:48:23.568
00:50:31.498                             : en:00:50:31.498
00:54:50.569                             : en:00:54:50.569
00:59:04.284                             : en:00:59:04.284
01:05:42.772                             : en:01:05:42.772
01:09:08.865                             : en:01:09:08.865
01:11:12.520                             : en:01:11:12.520
01:14:50.887                             : en:01:14:50.887
01:18:08.141                             : en:01:18:08.141
01:22:30.859                             : en:01:22:30.859
01:24:45.624                             : en:01:24:45.624
01:28:02.763                             : en:01:28:02.763
01:30:53.181                             : en:01:30:53.181
01:36:12.426                             : en:01:36:12.426

скриншот   скриншот   скриншот   скриншот   скриншот  
pb.wtf



Скачать Наблюдатель через торрент http://i5.imageban.ru/out/2014/09/21/8145821aa4866e0ad5207f2b85367694.jpg Скачать фильм Наблюдатель через торрент бесплантно в хорошем качестве Описание: Восемь лет агент ФБР Джоел Кэмпбелл выслеживал серийного убийцу. Однако не в силах больше постигать извращенную логику маньяка, ... 7.8 10 4
Info! Золотая раздача, скачанное не засчитывается.
Торрент: Зарегистрирован [2014-09-20 20:31] · скачан: 57 раз
Статус: √ проверено
Размер: 7.1 GB
Как cкачать? Как скачать Наблюдатель через торрент | qTorrent

% Раздел Тема Автор DL S | L
Фильмы [HD 720p, 1080p] (Хороший звук DUB, MVO) [ 5.03 GB ] Наблюдатель / The Watcher [2000 BDRip 720p] DUB MVO AVO msltel Скачать
1 | 0
Фильмы до 2000 г. [ 3.28 GB ] Наблюдатель / The Watcher [2000 BDRip-AVC] DUB MVO AVO msltel Скачать
1 | 0
Фильмы (Blu-ray, BD-Remux, HDDVD) [ 25.46 GB ] Наблюдатель / Watcher The [2000 BDRemux 1080p от NovaLan] DUB+MVO Ворон Скачать
1 | 0
Фильмы до 2000 г. [ 1.46 GB ] Наблюдатель / Watcher The [2000 HD-DVDRip] feldeger Скачать
1 | 0
Порно фильмы с сюжетом [ 697 MB ] The Watcher / Наблюдательница [2010 All sex Feature DVDRip] release date May 13 2010 Majestro Скачать
1 | 0

28-11-2019 20:33  

Отключить всю рекламу на сайте

    Дорогой пользователь! Огромная просьба, поблагодарите релизера, оцените раздачу и оставьте свои комментарий, если Вы скачали Наблюдатель через торрент бесплатно! Внесите свою лепту в развитие PiratBit!
    Комментировать посты могут только пользователи прошедшие не сложную регистрацию
    Показать сообщения:    

    Наблюдатель через торрент
    Скачать бесплатно Наблюдатель
    Наблюдатель скачать торрент
    Наблюдатель смотреть онлайн
    Cкачать фильм Наблюдатель бесплатно
    Наблюдатель скачать торрент в хорошем качестве
    Наблюдатель смотреть онлайн бесплатно в хорошем качестве


    Вы не можете начинать темы
    Вы не можете отвечать на сообщения
    Вы не можете редактировать свои сообщения
    Вы не можете удалять свои сообщения
    Вы не можете голосовать в опросах
    Вы не можете прикреплять файлы к сообщениям
    Вы можете скачивать файлы