>

7.4

iTunes

7.4

2 сезон

9.4

1 сезон

1

7.4

2 сезон

7.2

iTunes

6.0

MVO

13

6.1

iTunes

8.3

Пиратка

30

ULTIMATE

pack

9.9

Лицензия

ВАЖНО

ИГРА 18+

pack

7.3

RePack

MK11

7.7

RePack

jed

7.8

RePack

fifa19

8.5

RePack

RDR2

RePack

NEED FOR SPEED™ PAYBACK

1 сезон

9 сезон

Бесстыжие 9 сезон

Все сериалы

все сериалы на PB.wtf

RePack

FAR CRY 5

Anonymous, доброе утро, мы катастрофически не успеваем собрать деньги на оплату серверов, помогите нам пожалуйста 5,10,15р., для нас важна любая помощь . В качестве благодарности мы отключим Вам всю рекламу на сайте (укажите свой ник в строку Ваше имя)!

×
  
Magnet ссылка

Детский час / The Children's Hour (Уильям Уайлер) [1961г., Драма, экранизация, BDRip 720p] AVO pb.wtf

Детский час через торрент pb.wtf

Размер: 5.04 GB | Добавлен: 7 лет 3 мес. назад | Торрент скачан:1 раз
Смотреть онлайн Детский час | Скачать    Ребята, помогите собрать деньги на оплату серверов!!!

21-09-2014 05:17 Детский час Скачать торрент  

Детский час / The Children's Hour
Год выпуска: 1961
Страна: США
Жанр: Драма, экранизация
Продолжительность:
Перевод: 01:48:16
Субтитры: английские (отдельно)

Режиссёр: Уильям Уайлер

В ролях: Одри Хепбёрн, Ширли МакЛейн, Джеймс Гарнер, Мириам Хопкинс, Фэй Бэйнтер, Вероника Картрайт, Мими Гибсон, Уильям Мимс, Карен Балкин, Сэлли Брофи, Хоуп Саммерс

Описание: Лучшие подруги Карен Райт и Марта Доби заведуют популярной частной школой для девочек в провинциальном городке. Одна из учениц, в отместку за справедливое наказание, распускает о подругах сплетни. Она рассказывает бабушке - очень влиятельной особе в городе, - что Марта ревнует Карен из-за её отношений с доктором Джо Кардином, и что испытываемые Мартой к подруге чувства "противоестественны". Слухи быстро распространяются, и дела Карен и Марты приходят в упадок. Они подают в суд за клевету. Это дело оказывается столь громким, что попадает на первые полосы газет. Фильм снят по пьесе Лилиан Хеллман ''Детский час'', основанной на подлинном происшествии, которое случилось в Шотландии в 1909 году. Вполне возможно, это первый художественный фильм, в котором затрагивается тема отношений между двумя женщинами.



Качество: BDRip 720p Сравнение с исходником
Формат: MKV
Видео кодек: H.264
Аудио кодек: AC3
Видео: 1196x720, 6152 kbps, 23.976 кадра/сек
Аудио 1: русский, AC3, 192 kbps, 2 ch, 48 kHz [авторский, Юрий Сербин]
Аудио 2: английский, AC3, 192 kbps, 2 ch, 48 kHz [оригинал]

Автор рипа msltel
Оскар, 1962 год
Номинации (5):
Лучшая женская роль второго плана (Фэй Бейнтер)
Лучшая работа оператора (ч/б фильмы)
Лучшая работа художника (ч/б фильмы)
Лучшая работа художника по костюмам (ч/б фильмы)
Лучший звук

Золотой глобус, 1962 год
Номинации (3):
Лучшая женская роль (драма) (Ширли МакЛейн)
Лучший режиссер (Уильям Уайлер)
Лучшая женская роль второго плана (Фэй Бейнтер)
Общее
Уникальный идентификатор : 188097385065613141033429868775925207292 (0x8D823D173DB49900BCCAD6D1A811D0FC)
Полное имя : D:VideoDetskij chas.1961.BDRip.720p.mkv
Формат : Matroska
Версия формата : Version 4 / Version 2
Размер файла : 5,04 Гбайт
Продолжительность : 1 ч. 48 м.
Общий поток : 6669 Кбит/сек
Дата кодирования : UTC 2014-08-18 02:06:15
Программа кодирования : mkvmerge v6.9.1 ('Blue Panther') 64bit built on Apr 18 2014 18:23:38
Библиотека кодирования : libebml v1.3.0 + libmatroska v1.4.1

Видео
Идентификатор : 1
Формат : AVC
Формат/Информация : Advanced Video Codec
Профиль формата : High@L4.1
Параметр CABAC формата : Да
Параметр ReFrames формата : 9 кадров
Идентификатор кодека : V_MPEG4/ISO/AVC
Продолжительность : 1 ч. 48 м.
Битрейт : 6152 Кбит/сек
Ширина : 1196 пикселей
Высота : 720 пикселей
Соотношение сторон : 1,661
Режим частоты кадров : Постоянный
Частота кадров : 23,976 кадра/сек
Цветовое пространство : YUV
Субдискретизация насыщенности : 4:2:0
Битовая глубина : 8 бит
Тип развёртки : Прогрессивная
Бит/(Пиксели*Кадры) : 0.298
Размер потока : 4,65 Гбайт (92%)
Заголовок : BDRip -- STarankov
Библиотека кодирования : x264 core 142 r2431 ac76440
Настройки программы : cabac=1 / ref=9 / deblock=1:-1:-1 / analyse=0x3:0x113 / me=umh / subme=10 / psy=1 / psy_rd=1.00:0.15 / mixed_ref=1 / me_range=32 / chroma_me=1 / trellis=2 / 8x8dct=1 / cqm=0 / deadzone=21,11 / fast_pskip=0 / chroma_qp_offset=-3 / threads=6 / lookahead_threads=1 / sliced_threads=0 / nr=0 / decimate=1 / interlaced=0 / bluray_compat=0 / constrained_intra=0 / bframes=8 / b_pyramid=2 / b_adapt=2 / b_bias=0 / direct=1 / weightb=1 / open_gop=0 / weightp=2 / keyint=230 / keyint_min=23 / scenecut=40 / intra_refresh=0 / rc_lookahead=40 / rc=crf / mbtree=0 / crf=20.0 / qcomp=0.60 / qpmin=0 / qpmax=69 / qpstep=4 / vbv_maxrate=40000 / vbv_bufsize=50000 / crf_max=0.0 / nal_hrd=none / filler=0 / ip_ratio=1.40 / pb_ratio=1.30 / aq=1:1.00
Язык : English
Default : Да
Forced : Нет

Аудио #1
Идентификатор : 2
Формат : AC-3
Формат/Информация : Audio Coding 3
Расширение режима : CM (complete main)
Параметр Endianness формата : Big
Идентификатор кодека : A_AC3
Продолжительность : 1 ч. 48 м.
Вид битрейта : Постоянный
Битрейт : 192 Кбит/сек
Каналы : 2 канала
Расположение каналов : Front: L R
Частота : 48,0 КГц
Битовая глубина : 16 бит
Метод сжатия : С потерями
Размер потока : 149 Мбайт (3%)
Заголовок : AVO (Юрий Сербин)
Язык : Russian
Default : Да
Forced : Нет

Аудио #2
Идентификатор : 3
Формат : AC-3
Формат/Информация : Audio Coding 3
Расширение режима : CM (complete main)
Параметр Endianness формата : Big
Идентификатор кодека : A_AC3
Продолжительность : 1 ч. 48 м.
Вид битрейта : Постоянный
Битрейт : 192 Кбит/сек
Каналы : 2 канала
Расположение каналов : Front: L R
Частота : 48,0 КГц
Битовая глубина : 16 бит
Метод сжатия : С потерями
Размер потока : 149 Мбайт (3%)
Заголовок : Original
Язык : English
Default : Нет
Forced : Нет

Текст
Идентификатор : 4
Формат : UTF-8
Идентификатор кодека : S_TEXT/UTF8
Идентификатор кодека/Информация : UTF-8 Plain Text
Заголовок : английский
Язык : English
Default : Нет
Forced : Нет
pb.wtf



Скачать Детский час через торрент http://i63.fastpic.ru/big/2014/0921/0d/8a8c668fb2e82999c2a164801f72620d.jpg Скачать, смотреть онлайн Детский час бесплантно в хорошем качестве Описание: Лучшие подруги Карен Райт и Марта Доби заведуют популярной частной школой для девочек в провинциальном городке. Одна из учениц, в ... 5 10 1
Торрент: Зарегистрирован [2014-09-21 05:17] · скачан: 1 раз
Статус: √ проверено
Размер: 5.04 GB
Как cкачать? Как скачать Детский час через торрент | UTorrent

28-11-2019 20:33  

Отключить всю рекламу на сайте

    Дорогой пользователь! Огромная просьба, поблагодарите релизера, оцените раздачу и оставьте свои комментарий, если Вы скачали Детский час через торрент бесплатно!
    Комментировать посты могут только пользователи прошедшие не сложную регистрацию
    Показать сообщения:    

    Детский час через торрент
    Скачать бесплатно Детский час
    Детский час скачать торрент
    Детский час смотреть онлайн
    Cкачать фильм Детский час бесплатно
    Детский час скачать торрент в хорошем качестве
    Детский час смотреть онлайн бесплатно в хорошем качестве


    Вы не можете начинать темы
    Вы не можете отвечать на сообщения
    Вы не можете редактировать свои сообщения
    Вы не можете удалять свои сообщения
    Вы не можете голосовать в опросах
    Вы не можете прикреплять файлы к сообщениям
    Вы можете скачивать файлы