Ссылка на приватное зеркало нашего сайта всего за 1$. Внимание количество ограничено!!!

2 сезон

iTunes

1 сезон

1

2 сезон

2 сезон

iTunes

1 сезон

RePack

30

Новинка

ВАЖНО

ИГРА 18+

pack

RePack

MK11
pack

Забери бонус

RePack

jed

!!Акция!!

Alien_Rage

RePack

fifa19

RePack

Assassins Creed: Odyssey

RePack

NEED FOR SPEED™ PAYBACK

4 сезон

9 сезон

Бесстыжие 9 сезон

Все сериалы

все сериалы на PB.wtf

RePack

FAR CRY 5
  

Бессонница / Insomnia (Эрик Шелдбьерг) [1997г., Триллер, драма, детектив, BDRip] MVO pb.wtf

Бессонница через торрент pb.wtf

Размер: 1.54 GB | Добавлен: 6 лет 2 мес. назад | Торрент скачан:43 раза
Скачать  

21-09-2014 11:35 Бессонница Скачать торрент  

Бессонница / Insomnia
Год выпуска: 1997
Страна: Норвегия
Жанр: Триллер, драма, детектив
Продолжительность: 01:36:17
Перевод: Профессиональный многоголосый
Субтитры: русские, английские (все отдельно)

Режиссёр: Эрик Шелдбьерг

В ролях: Стеллан Скарсгард, Мария Матьезен, Сверре Анкер Оусдаль, Гискен Арманд, Кристиан Фидженшоу, Тур Михаэль Омодт, Фроде Расмуссен, Бьорн Моан, Мария Бонневи, Марианне О. Ульриксен, Бьерн Флоберг, Гури Джонсон

Описание: Два матёрых шведских детектива прибывают в крошечный норвежский городок, чтобы помочь неопытным местным полицейским расследовать убийство девушки. «Аккуратный» убийца допускает единственный просчет, что позволяет сыщикам устроить на него засаду. Но, по нелепому стечению обстоятельств, в густом тумане опытнейший детектив Йонас Энгстрем случайно убивает своего напарника и упускает преступника, ставшего свидетелем фатального несчастного случая. Теперь Энгстрему, оказавшемуся на крючке у убийцы, нужно не только замести следы, но и раскрыть преступление, не подставив своего невольного соучастника.



Качество: BDRip Сравнение с исходником
Формат: AVI
Видео кодек: XviD
Аудио кодек: AC3
Видео: 720x384, 1903 kbps, 23.976 кадра/сек
Аудио: русский, AC3, 192 kbps, 2 ch, 48 kHz [профессиональный многоголосый]

Отдельный файл
Аудио: норвежский, AC3, 192 kbps, 2 ch, 48 kHz [оригинал]

Автор рипа msltel
Общее
Полное имя : D:VideoBessonnica.1997.BDRipBessonnica.1997.BDRip.avi
Формат : AVI
Формат/Информация : Audio Video Interleave
Размер файла : 1,42 Гбайт
Продолжительность : 1 ч. 36 м.
Общий поток : 2104 Кбит/сек
Программа кодирования : VirtualDubMod 1.5.10.2 (build 2540/release)
Библиотека кодирования : VirtualDubMod build 2540/release

Видео
Идентификатор : 0
Формат : MPEG-4 Visual
Профиль формата : Advanced Simple@L5
Параметр BVOP формата : 1
Параметр QPel формата : Нет
Параметр GMC формата : Без точки перехода
Параметр матрицы формата : Default (H.263)
Режим смешивания : Сжатый битовый поток
Идентификатор кодека : XVID
Идентификатор кодека/Подсказка : XviD
Продолжительность : 1 ч. 36 м.
Битрейт : 1903 Кбит/сек
Ширина : 720 пикселей
Высота : 384 пикселя
Соотношение сторон : 1,85:1
Частота кадров : 23,976 кадра/сек
Цветовое пространство : YUV
Субдискретизация насыщенности : 4:2:0
Битовая глубина : 8 бит
Тип развёртки : Прогрессивная
Метод сжатия : С потерями
Бит/(Пиксели*Кадры) : 0.287
Размер потока : 1,28 Гбайт (90%)
Библиотека кодирования : XviD 1.2.1 (UTC 2008-12-04)

Аудио
Идентификатор : 1
Формат : AC-3
Формат/Информация : Audio Coding 3
Расширение режима : CM (complete main)
Параметр Endianness формата : Big
Идентификатор кодека : 2000
Продолжительность : 1 ч. 36 м.
Вид битрейта : Постоянный
Битрейт : 192 Кбит/сек
Каналы : 2 канала
Расположение каналов : Front: L R
Частота : 48,0 КГц
Битовая глубина : 16 бит
Метод сжатия : С потерями
Размер потока : 132 Мбайт (9%)
Выравнивание : Разделение по промежуткам
Продолжительность промежутка : 42 мс. (1,00 видеокадр)
Время предзагрузки промежутка : 500 мс.

Общее
Полное имя : D:VideoBessonnica.1997.BDRipBessonnica.1997.eng.srt
Размер файла : 95,3 Кбайт

Общее
Полное имя : D:VideoBessonnica.1997.BDRipBessonnica.1997.Original.nor.ac3
Формат : AC-3
Формат/Информация : Audio Coding 3
Размер файла : 132 Мбайт
Продолжительность : 1 ч. 36 м.
Режим общего битрейта : Постоянный
Общий поток : 192 Кбит/сек

Аудио
Формат : AC-3
Формат/Информация : Audio Coding 3
Расширение режима : CM (complete main)
Параметр Endianness формата : Big
Продолжительность : 1 ч. 36 м.
Вид битрейта : Постоянный
Битрейт : 192 Кбит/сек
Каналы : 2 канала
Расположение каналов : Front: L R
Частота : 48,0 КГц
Битовая глубина : 16 бит
Метод сжатия : С потерями
Размер потока : 132 Мбайт (100%)

Общее
Полное имя : D:VideoBessonnica.1997.BDRipBessonnica.1997.rus.srt
Размер файла : 99,8 Кбайт
pb.wtf



Скачать Бессонница через торрент http://i64.fastpic.ru/big/2014/0921/91/b73fe7dc7531980fb32996730654d291.jpg Скачать фильм Бессонница через торрент бесплантно в хорошем качестве Описание: Два матёрых шведских детектива прибывают в крошечный норвежский городок, чтобы помочь неопытным местным полицейским расследовать ... 5 10 1
Торрент: Зарегистрирован [2014-09-21 11:35] · скачан: 43 раз
Статус: √ проверено
Размер: 1.54 GB
Как cкачать? Как скачать Бессонница через торрент | qTorrent

% Раздел Тема Автор DL S | L
Зарубежные сериалы [ 22.19 GB ] Бессонница / Insomnia / Сезон: 1 / Серии: 1-8 из 8 [2018 WEBRip 1080p] MVO [BaibaKo] bober100 Скачать
1 | 0
Зарубежные сериалы [ 4.83 GB ] Бессонница / Insomnia / Сезон: 1 / Серия 1-8 из 8 [2018 WEBRip] MVO [BaibaKo] GEKADOL Скачать
1 | 0
Фильмы [HD 720p, 1080p] (Хороший звук DUB, MVO) [ 7.95 GB ] Бессонница / Insomnia [2002 BDRip 720p] DUB MVO AVO potroks Скачать
1 | 0
Фильмы [HD 720p, 1080p] (Хороший звук DUB, MVO) [ 11.12 GB ] Бессонница / Insomnia [1997 BDRip 1080p] MVO msltel Скачать
1 | 0
Фильмы [HD 720p, 1080p] (Хороший звук DUB, MVO) [ 4.58 GB ] Бессонница / Insomnia [1997 BDRip 720p] MVO msltel Скачать
1 | 0
Фильмы [HD 720p, 1080p] (Хороший звук DUB, MVO) [ 11.88 GB ] Бессонница / Insomnia [2002 BDRip 1080p] DUB MVO DVO Инна Королева и Петр Гланц + Sub rus + original eng EXEBET Скачать
1 | 0

28-11-2019 20:33  

Отключить всю рекламу на сайте

    Дорогой пользователь! Огромная просьба, поблагодарите релизера, оцените раздачу и оставьте свои комментарий, если Вы скачали Бессонница через торрент бесплатно! Внесите свою лепту в развитие PiratBit!
    Комментировать посты могут только пользователи прошедшие не сложную регистрацию
    Показать сообщения:    

    Бессонница через торрент
    Скачать бесплатно Бессонница
    Бессонница скачать торрент
    Бессонница смотреть онлайн
    Cкачать фильм Бессонница бесплатно
    Бессонница скачать торрент в хорошем качестве
    Бессонница смотреть онлайн бесплатно в хорошем качестве


    Вы не можете начинать темы
    Вы не можете отвечать на сообщения
    Вы не можете редактировать свои сообщения
    Вы не можете удалять свои сообщения
    Вы не можете голосовать в опросах
    Вы не можете прикреплять файлы к сообщениям
    Вы можете скачивать файлы