Доктор Стрэндж

Лицензия

Добыча

MVO

Дом дракона

1 сезон

Тор

Лицензия

Мэверик

Лицензия

Там, где раки поют

MVO

Властелин колец

1 сезон

Ultimate

pack

Рекомендуем

30

Repack

ВАЖНО

ВАЖНО

Ghostwire

RePack

jed

RePack

nioh2

RePack

RDR2

RePack

NEED FOR SPEED™ PAYBACK

RePack

скачать торрент

Кинопоиск HD

Острые козырьки 6 сезон

6 сезон

FAR CRY 6

RePack

скачать торрент

Лицензия

скачать торрент

MVO

1

1 сезон

скачать торрент

1 сезон

скачать торрент

Лицензия

  

Ловец снов / Dreamcatcher (Лоуренс Кэздан) [2003г., Ужасы, фантастика, триллер, драма, BDRip 1080p] DUB, MVO, AVO

Ловец снов через торрент pb.wtf

Размер: 12.26 GB | Добавлен: 8 лет назад | Торрент скачан:137 раз
Смотреть онлайн Ловец снов | Скачать   

21-09-2014 12:36 Ловец снов Скачать торрент  

Ловец снов / Dreamcatcher
Год выпуска: 2003
Страна: США, Австралия
Жанр: Ужасы, фантастика, триллер, драма
Продолжительность: 02:13:46
Перевод: Дублированный, профессиональный многоголосый, авторский
Субтитры: Русские, английские

Режиссёр: Лоуренс Кэздан

В ролях: Морган Фримен, Томас Джейн, Джейсон Ли, Дэмиэн Льюис, Тимоти Олифант, Том Сайзмор, Донни Уолберг, Майки Хоулкамп, Рис Томпсон, Джакомо Бессато

Описание: Джонси, Генри, Пит и Бивер. Двадцать лет назад они были просто мальчишками, проживающими в одном небольшом городке штата Мэн, — детьми, нашедшими в себе достаточно мужества, чтобы героически ответить на детскую жестокость. Награда за спасение странноватого мальчика по имени Даддитс совершенно неожиданно пришла к ним в виде сверхъестественных сил, связавших всех пятерых крепчайшими узами братства. Когда на ежегодной охоте друзья собираются вместе в лесной хижине, вместо ожидаемой теплой весёлой атмосферы над ними начинает сгущаться абсолютное зло, приносящее гибель. Сначала к ним попадает незнакомец, затерявшийся в лесу охотник, которому и невдомёк, что его организм поражён смертельной заразой. А вслед за ним возникает неистовствующий снежный буран, в эпицентре которого движется нечто ещё более зловещее… Впереди — крупнейшее противостояние ужасу, не имеющему аналогов.



Качество: BDRip 1080p Сравнение с исходником
Формат: MKV
Видео кодек: H.264
Аудио кодек: AC3
Видео: 1920х798, 10.2 Mbps, 23.976 кадра/сек
Аудио 1: русский, AC3, 192 kbps, 2 ch, 48 kHz [Дублированный]
Аудио 2: русский, AC3, 192 kbps, 2 ch, 48 kHz [Профессиональный многоголосый, РТР]
Аудио 3: русский, AC3, 384 kbps, 6 ch, 48 kHz [Авторский, Андрей Гаврилов]
Аудио 4: русский, AC3, 384 kbps, 6 ch, 48 kHz [Авторский, Юрий Живов]
Аудио 5: английский, DTS, 1509 kbps, 6 ch, 48 kHz [Оригинал]

Имеются поименованные главы/чаптеры.

Автор рипа msltel
Общее
Уникальный идентификатор : 232082856056821441694328052298836504197 (0xAE99883EA4E9B58CB16F391A439E6E85)
Полное имя : D:VideoLovec snov.2003.BDRip.1080p.mkv
Формат : Matroska
Версия формата : Version 4 / Version 2
Размер файла : 12,3 Гбайт
Продолжительность : 2 ч. 13 м.
Общий поток : 13,1 Мбит/сек
Дата кодирования : UTC 2014-09-21 10:41:07
Программа кодирования : mkvmerge v6.9.1 ('Blue Panther') 64bit built on Apr 18 2014 18:23:38
Библиотека кодирования : libebml v1.3.0 + libmatroska v1.4.1

Видео
Идентификатор : 1
Формат : AVC
Формат/Информация : Advanced Video Codec
Профиль формата : [email protected]
Параметр CABAC формата : Да
Параметр ReFrames формата : 4 кадра
Идентификатор кодека : V_MPEG4/ISO/AVC
Продолжительность : 2 ч. 13 м.
Битрейт : 10,2 Мбит/сек
Ширина : 1920 пикселей
Высота : 798 пикселей
Соотношение сторон : 2,40:1
Режим частоты кадров : Постоянный
Частота кадров : 23,976 кадра/сек
Цветовое пространство : YUV
Субдискретизация насыщенности : 4:2:0
Битовая глубина : 8 бит
Тип развёртки : Прогрессивная
Бит/(Пиксели*Кадры) : 0.278
Размер потока : 9,53 Гбайт (78%)
Заголовок : BDRip -- STarankov
Библиотека кодирования : x264 core 142 r2431 ac76440
Настройки программы : cabac=1 / ref=4 / deblock=1:-1:-1 / analyse=0x3:0x113 / me=umh / subme=10 / psy=1 / psy_rd=1.00:0.15 / mixed_ref=1 / me_range=32 / chroma_me=1 / trellis=2 / 8x8dct=1 / cqm=0 / deadzone=21,11 / fast_pskip=0 / chroma_qp_offset=-3 / threads=6 / lookahead_threads=1 / sliced_threads=0 / nr=0 / decimate=1 / interlaced=0 / bluray_compat=0 / constrained_intra=0 / bframes=8 / b_pyramid=2 / b_adapt=2 / b_bias=0 / direct=1 / weightb=1 / open_gop=0 / weightp=2 / keyint=230 / keyint_min=23 / scenecut=40 / intra_refresh=0 / rc_lookahead=40 / rc=crf / mbtree=0 / crf=19.8 / qcomp=0.60 / qpmin=0 / qpmax=69 / qpstep=4 / vbv_maxrate=40000 / vbv_bufsize=50000 / crf_max=0.0 / nal_hrd=none / filler=0 / ip_ratio=1.40 / pb_ratio=1.30 / aq=1:1.00
Язык : English
Default : Да
Forced : Нет

Аудио #1
Идентификатор : 2
Формат : AC-3
Формат/Информация : Audio Coding 3
Профиль формата : Dolby Digital
Расширение режима : CM (complete main)
Параметр Endianness формата : Big
Идентификатор кодека : A_AC3
Продолжительность : 2 ч. 13 м.
Вид битрейта : Постоянный
Битрейт : 192 Кбит/сек
Каналы : 2 канала
Расположение каналов : Front: L R
Частота : 48,0 КГц
Битовая глубина : 16 бит
Метод сжатия : С потерями
Размер потока : 184 Мбайт (1%)
Заголовок : DUB
Язык : Russian
Default : Да
Forced : Нет

Аудио #2
Идентификатор : 3
Формат : AC-3
Формат/Информация : Audio Coding 3
Расширение режима : CM (complete main)
Параметр Endianness формата : Big
Идентификатор кодека : A_AC3
Продолжительность : 2 ч. 13 м.
Вид битрейта : Постоянный
Битрейт : 192 Кбит/сек
Каналы : 2 канала
Расположение каналов : Front: L R
Частота : 48,0 КГц
Битовая глубина : 16 бит
Метод сжатия : С потерями
Размер потока : 184 Мбайт (1%)
Заголовок : MVO (PTP)
Язык : Russian
Default : Нет
Forced : Нет

Аудио #3
Идентификатор : 4
Формат : AC-3
Формат/Информация : Audio Coding 3
Расширение режима : CM (complete main)
Параметр Endianness формата : Big
Идентификатор кодека : A_AC3
Продолжительность : 2 ч. 13 м.
Вид битрейта : Постоянный
Битрейт : 384 Кбит/сек
Каналы : 6 каналов
Расположение каналов : Front: L C R, Side: L R, LFE
Частота : 48,0 КГц
Битовая глубина : 16 бит
Метод сжатия : С потерями
Размер потока : 367 Мбайт (3%)
Заголовок : AVO (андрей Гаврилов)
Язык : Russian
Default : Нет
Forced : Нет

Аудио #4
Идентификатор : 5
Формат : AC-3
Формат/Информация : Audio Coding 3
Расширение режима : CM (complete main)
Параметр Endianness формата : Big
Идентификатор кодека : A_AC3
Продолжительность : 2 ч. 13 м.
Вид битрейта : Постоянный
Битрейт : 384 Кбит/сек
Каналы : 6 каналов
Расположение каналов : Front: L C R, Side: L R, LFE
Частота : 48,0 КГц
Битовая глубина : 16 бит
Метод сжатия : С потерями
Размер потока : 367 Мбайт (3%)
Заголовок : AVO (Юрий Живов)
Язык : Russian
Default : Нет
Forced : Нет

Аудио #5
Идентификатор : 6
Формат : DTS
Формат/Информация : Digital Theater Systems
Режим : 16
Параметр Endianness формата : Big
Идентификатор кодека : A_DTS
Продолжительность : 2 ч. 13 м.
Вид битрейта : Постоянный
Битрейт : 1509 Кбит/сек
Каналы : 6 каналов
Расположение каналов : Front: L C R, Side: L R, LFE
Частота : 48,0 КГц
Битовая глубина : 24 бит
Метод сжатия : С потерями
Размер потока : 1,41 Гбайт (12%)
Заголовок : Original
Язык : English
Default : Нет
Forced : Нет

Текст #1
Идентификатор : 7
Формат : UTF-8
Идентификатор кодека : S_TEXT/UTF8
Идентификатор кодека/Информация : UTF-8 Plain Text
Заголовок : русский
Язык : Russian
Default : Нет
Forced : Нет

Текст #2
Идентификатор : 8
Формат : UTF-8
Идентификатор кодека : S_TEXT/UTF8
Идентификатор кодека/Информация : UTF-8 Plain Text
Заголовок : английский
Default : Нет
Forced : Нет

Меню
00:00:00.000 : en:1. Opening Credits
00:02:43.000 : en:2. "How Could You Know This?"
00:06:15.000 : en:3. "Just Luck Is All"
00:10:33.000 : en:4. Jonesy's Accident
00:13:29.000 : en:5. "I Saw Duddits"
00:16:54.000 : en:6. Memory Warehouse
00:20:30.000 : en:7. Rescuing Duddits
00:26:14.000 : en:8. Rick McCarthy
00:30:22.000 : en:9. "The Blue Ribbon Baby"
00:34:33.000 : en:10. The Scout Accident
00:36:28.000 : en:11. Animal Exodus
00:40:28.000 : en:12. "Sit Tight, Buddy"
00:46:02.000 : en:13. The Weasel Attacks
00:49:38.000 : en:14. "What Do You Want?"
00:52:29.000 : en:15. Curtis and Owen
00:56:03.000 : en:16. The Curtis Line
00:57:23.000 : en:17. Pete and the Snowbank
00:59:44.000 : en:18. "I'll Never Drink Again"
01:04:08.000 : en:19. "You're Not Jonesy"
01:05:39.000 : en:20. The Line
01:08:04.000 : en:21. The Cabin Transformed
01:10:56.000 : en:22. Duddits' Gift
01:16:54.000 : en:23. Destroying the Ship
01:21:52.000 : en:24. "All Right... I'll Bite"
01:26:26.000 : en:25. Race Through the Warehouse
01:30:04.000 : en:26. Mind Probe
01:31:27.000 : en:27. "Except For the Dreams"
01:35:01.000 : en:28. "You've Got Two Problems"
01:37:23.000 : en:29. Jonesy Calling
01:40:51.000 : en:30. "Go Save the World"
01:44:24.000 : en:31. Making Himself at Home
01:46:58.000 : en:32. "Mr. Gray Wants Water"
01:50:00.000 : en:33. Quabbin Reservoir
01:53:27.000 : en:34. "So Long, Doctor"
01:56:30.000 : en:35. "Don't You Know Me, H?"
01:59:48.000 : en:36. "I Duddits!"
02:03:51.000 : en:37. End Credits
02:08:05.000 : en:38. Meeting Josie



Скачать Ловец снов через торрент http://i65.fastpic.ru/big/2014/0920/f5/edfea5d0f7b191252bc6f868999db6f5.jpg Скачать, смотреть онлайн Ловец снов бесплантно в хорошем качестве Описание: Джонси, Генри, Пит и Бивер. Двадцать лет назад они были просто мальчишками, проживающими в одном небольшом городке штата Мэн, — ... 10 10 12
Info! Серебряная раздача, засчитывается только 50% скачанного.
Торрент: Зарегистрирован [2014-09-21 12:36] · скачан: 137 раз
Статус: √ проверено
Размер: 12.26 GB
Как cкачать? Как скачать Ловец снов через торрент | UTorrent

% Раздел Тема Автор DL S | L
Фильмы [HD 720p, 1080p] (Хороший звук DUB, MVO) [ 8.59 GB ] Ловец снов / Dreamcatcher | DUB+MVO+DVO+2xAVO | 1080p, (10bit bober100 Скачать
1 | 0
Фильмы (Blu-ray, BD-Remux, HDDVD) [ 43.6 GB ] Ловец снов / Dreamcatcher | DUB+2xDVO+5xAVO+3xMVO | BD Remux 1080p bober100 Скачать
3 | 0
Фильмы [HD 720p, 1080p] (Хороший звук DUB, MVO) [ 5.66 GB ] Ловец снов / Dreamcatcher | DUB | 720p msltel Скачать
1 | 0
Фильмы 2001-2005 [ 2.98 GB ] Ловец снов / Dreamcatcher | DUB | BDRip msltel Скачать
1 | 0

28-11-2019 20:33  

Отключить вcю реклaмy на сайте

21-09-2014 16:55 Ловец снов Скачать торрент  

один из любимых по кингу



    Дорогой пользователь! Огромная просьба, поблагодарите релизера, оцените раздачу и оставьте свои комментарий, если Вы скачали Ловец снов через торрент бесплатно!!
    Комментировать посты могут только пользователи прошедшие не сложную регистрацию
    Показать сообщения:    


    Ловец снов через торрент
    Скачать бесплатно Ловец снов
    Ловец снов скачать торрент
    Ловец снов смотреть онлайн
    Cкачать фильм Ловец снов бесплатно
    Ловец снов скачать торрент в хорошем качестве
    Ловец снов смотреть онлайн бесплатно в хорошем качестве
    Вы не можете начинать темы
    Вы не можете отвечать на сообщения
    Вы не можете редактировать свои сообщения
    Вы не можете удалять свои сообщения
    Вы не можете голосовать в опросах
    Вы не можете прикреплять файлы к сообщениям
    Вы можете скачивать файлы