Ссылка на приватное зеркало нашего сайта всего за 1$. Внимание количество ограничено!!!

2 сезон

iTunes

1 сезон

1

iTunes

iTunes

iTunes

1 сезон

RePack

30

ИГРА 18+

pack

ВАЖНО

!!Акция!!

Alien_RageХит недели

RePack

MK11
pack

Забери бонус

RePack

jed

!!Акция!!

Alien_Rage

RePack

fifa19

RePack

Assassins Creed: Odyssey

RePack

NEED FOR SPEED™ PAYBACK

4 сезон

9 сезон

Бесстыжие 9 сезон

Все сериалы

все сериалы на PB.wtf

RePack

FAR CRY 5
  

Бессонница / Insomnia (Эрик Шелдбьерг) [1997г., Триллер, драма, детектив, BDRip 1080p] MVO pb.wtf

Бессонница через торрент pb.wtf

Размер: 11.12 GB | Добавлен: 6 лет 1 мес. назад | Торрент скачан:6 раз
Скачать  

21-09-2014 13:49 Бессонница Скачать торрент  

Бессонница / Insomnia
Год выпуска: 1997
Страна: Норвегия
Жанр: Триллер, драма, детектив
Продолжительность: 01:36:17
Перевод: Профессиональный многоголосый
Субтитры: русские, английские

Режиссёр: Эрик Шелдбьерг

В ролях: Стеллан Скарсгард, Мария Матьезен, Сверре Анкер Оусдаль, Гискен Арманд, Кристиан Фидженшоу, Тур Михаэль Омодт, Фроде Расмуссен, Бьорн Моан, Мария Бонневи, Марианне О. Ульриксен, Бьерн Флоберг, Гури Джонсон

Описание: Два матёрых шведских детектива прибывают в крошечный норвежский городок, чтобы помочь неопытным местным полицейским расследовать убийство девушки. «Аккуратный» убийца допускает единственный просчет, что позволяет сыщикам устроить на него засаду. Но, по нелепому стечению обстоятельств, в густом тумане опытнейший детектив Йонас Энгстрем случайно убивает своего напарника и упускает преступника, ставшего свидетелем фатального несчастного случая. Теперь Энгстрему, оказавшемуся на крючке у убийцы, нужно не только замести следы, но и раскрыть преступление, не подставив своего невольного соучастника.



Качество: BDRip 1080p Сравнение с исходником
Формат: MKV
Видео кодек: H.264
Аудио кодек: AC3,DTS
Видео: 1920x1036, 14.5 Mbps, 23.976 кадра/сек
Аудио 1: русский, AC3, 192 kbps, 2 ch, 48 kHz [профессиональный многоголосый]
Аудио 2: норвежский, AC3, 1509 kbps, 2 ch, 48 kHz [оригинал]

Автор рипа msltel
Общее
Уникальный идентификатор : 222913276219770908511299367547390304153 (0xA7B3890DD5085B81B5A4D18F39969F99)
Полное имя : D:VideoBessonnica.1997.BDRip.1080p.mkv
Формат : Matroska
Версия формата : Version 4 / Version 2
Размер файла : 11,1 Гбайт
Продолжительность : 1 ч. 36 м.
Общий поток : 16,5 Мбит/сек
Дата кодирования : UTC 2014-08-21 05:36:39
Программа кодирования : mkvmerge v6.9.1 ('Blue Panther') 64bit built on Apr 18 2014 18:23:38
Библиотека кодирования : libebml v1.3.0 + libmatroska v1.4.1

Видео
Идентификатор : 1
Формат : AVC
Формат/Информация : Advanced Video Codec
Профиль формата : High@L4.1
Параметр CABAC формата : Да
Параметр ReFrames формата : 4 кадра
Идентификатор кодека : V_MPEG4/ISO/AVC
Продолжительность : 1 ч. 36 м.
Битрейт : 14,5 Мбит/сек
Ширина : 1920 пикселей
Высота : 1036 пикселей
Соотношение сторон : 1,85:1
Режим частоты кадров : Постоянный
Частота кадров : 23,976 кадра/сек
Цветовое пространство : YUV
Субдискретизация насыщенности : 4:2:0
Битовая глубина : 8 бит
Тип развёртки : Прогрессивная
Бит/(Пиксели*Кадры) : 0.304
Размер потока : 9,75 Гбайт (88%)
Заголовок : BDRip -- STarankov
Библиотека кодирования : x264 core 142 r2431 ac76440
Настройки программы : cabac=1 / ref=4 / deblock=1:-1:-1 / analyse=0x3:0x113 / me=umh / subme=10 / psy=1 / psy_rd=1.00:0.15 / mixed_ref=1 / me_range=32 / chroma_me=1 / trellis=2 / 8x8dct=1 / cqm=0 / deadzone=21,11 / fast_pskip=0 / chroma_qp_offset=-3 / threads=6 / lookahead_threads=1 / sliced_threads=0 / nr=0 / decimate=1 / interlaced=0 / bluray_compat=0 / constrained_intra=0 / bframes=8 / b_pyramid=2 / b_adapt=2 / b_bias=0 / direct=1 / weightb=1 / open_gop=0 / weightp=2 / keyint=230 / keyint_min=23 / scenecut=40 / intra_refresh=0 / rc_lookahead=40 / rc=crf / mbtree=0 / crf=22.2 / qcomp=0.60 / qpmin=0 / qpmax=69 / qpstep=4 / vbv_maxrate=40000 / vbv_bufsize=50000 / crf_max=0.0 / nal_hrd=none / filler=0 / ip_ratio=1.40 / pb_ratio=1.30 / aq=1:1.00
Язык : Norwegian
Default : Да
Forced : Нет

Аудио #1
Идентификатор : 2
Формат : AC-3
Формат/Информация : Audio Coding 3
Расширение режима : CM (complete main)
Параметр Endianness формата : Big
Идентификатор кодека : A_AC3
Продолжительность : 1 ч. 36 м.
Вид битрейта : Постоянный
Битрейт : 192 Кбит/сек
Каналы : 2 канала
Расположение каналов : Front: L R
Частота : 48,0 КГц
Битовая глубина : 16 бит
Метод сжатия : С потерями
Размер потока : 132 Мбайт (1%)
Заголовок : MVO
Язык : Russian
Default : Да
Forced : Нет

Аудио #2
Идентификатор : 3
Формат : DTS
Формат/Информация : Digital Theater Systems
Режим : 16
Параметр Endianness формата : Big
Идентификатор кодека : A_DTS
Продолжительность : 1 ч. 36 м.
Вид битрейта : Постоянный
Битрейт : 1509 Кбит/сек
Каналы : 2 канала
Расположение каналов : Front: L R
Частота : 48,0 КГц
Битовая глубина : 24 бит
Метод сжатия : С потерями
Размер потока : 1,01 Гбайт (9%)
Заголовок : Original
Язык : Norwegian
Default : Нет
Forced : Нет

Текст #1
Идентификатор : 4
Формат : UTF-8
Идентификатор кодека : S_TEXT/UTF8
Идентификатор кодека/Информация : UTF-8 Plain Text
Заголовок : русский
Язык : Russian
Default : Нет
Forced : Нет

Текст #2
Идентификатор : 5
Формат : UTF-8
Идентификатор кодека : S_TEXT/UTF8
Идентификатор кодека/Информация : UTF-8 Plain Text
Заголовок : английский
Default : Нет
Forced : Нет
pb.wtf



Скачать Бессонница через торрент http://i64.fastpic.ru/big/2014/0921/91/b73fe7dc7531980fb32996730654d291.jpg Скачать фильм Бессонница через торрент бесплантно в хорошем качестве Описание: Два матёрых шведских детектива прибывают в крошечный норвежский городок, чтобы помочь неопытным местным полицейским расследовать ... 10 10 1
Торрент: Зарегистрирован [2014-09-21 13:49] · скачан: 6 раз
Статус: √ проверено
Размер: 11.12 GB
Как cкачать? Как скачать Бессонница через торрент | qTorrent

% Раздел Тема Автор DL S | L
Зарубежные сериалы [ 22.19 GB ] Бессонница / Insomnia / Сезон: 1 / Серии: 1-8 из 8 [2018 WEBRip 1080p] MVO [BaibaKo] bober100 Скачать
1 | 0
Зарубежные сериалы [ 4.83 GB ] Бессонница / Insomnia / Сезон: 1 / Серия 1-8 из 8 [2018 WEBRip] MVO [BaibaKo] GEKADOL Скачать
1 | 0
Фильмы [HD 720p, 1080p] (Хороший звук DUB, MVO) [ 7.95 GB ] Бессонница / Insomnia [2002 BDRip 720p] DUB MVO AVO potroks Скачать
1 | 0
Фильмы [HD 720p, 1080p] (Хороший звук DUB, MVO) [ 4.58 GB ] Бессонница / Insomnia [1997 BDRip 720p] MVO msltel Скачать
1 | 0
Фильмы до 2000 г. [ 1.54 GB ] Бессонница / Insomnia [1997 BDRip] MVO msltel Скачать
1 | 0
Фильмы [HD 720p, 1080p] (Хороший звук DUB, MVO) [ 11.88 GB ] Бессонница / Insomnia [2002 BDRip 1080p] DUB MVO DVO Инна Королева и Петр Гланц + Sub rus + original eng EXEBET Скачать
1 | 0

28-11-2019 20:33  

Отключить всю рекламу на сайте

    Дорогой пользователь! Огромная просьба, поблагодарите релизера, оцените раздачу и оставьте свои комментарий, если Вы скачали Бессонница через торрент бесплатно! Внесите свою лепту в развитие PiratBit!
    Комментировать посты могут только пользователи прошедшие не сложную регистрацию
    Показать сообщения:    

    Бессонница через торрент
    Скачать бесплатно Бессонница
    Бессонница скачать торрент
    Бессонница смотреть онлайн
    Cкачать фильм Бессонница бесплатно
    Бессонница скачать торрент в хорошем качестве
    Бессонница смотреть онлайн бесплатно в хорошем качестве


    Вы не можете начинать темы
    Вы не можете отвечать на сообщения
    Вы не можете редактировать свои сообщения
    Вы не можете удалять свои сообщения
    Вы не можете голосовать в опросах
    Вы не можете прикреплять файлы к сообщениям
    Вы можете скачивать файлы