Ссылка на приватное зеркало нашего сайта всего за 1$. Внимание количество ограничено!!!

2 сезон

iTunes

1 сезон

1

iTunes

iTunes

iTunes

1 сезон

RePack

30

ИГРА 18+

pack

ВАЖНО

!!Акция!!

Alien_RageХит недели

RePack

MK11
pack

Забери бонус

RePack

jed

!!Акция!!

Alien_Rage

RePack

fifa19

RePack

Assassins Creed: Odyssey

RePack

NEED FOR SPEED™ PAYBACK

4 сезон

9 сезон

Бесстыжие 9 сезон

Все сериалы

все сериалы на PB.wtf

RePack

FAR CRY 5
  

Рыжая Соня / Red Sonja (Ричард Флайшер / Richard Fleischer) [1985, Нидерланды, США, фэнтези, боевик, приключения, BDRip 1080p, Профессиональный многоголосый pb.wtf

Рыжая Соня через торрент pb.wtf

Размер: 7.95 GB | Добавлен: 6 лет 1 мес. назад | Торрент скачан:58 раз
Скачать  

21-09-2014 13:58 Рыжая Соня Скачать торрент  

Рыжая Соня / Red Sonja

Год выпуска: 1985
Страна:Нидерланды, США
Жанр: фэнтези, боевик, приключения
Продолжительность: 01:28:52
Перевод: Профессиональный многоголосый
Субтитры: русские, английские
Режиссер: Ричард Флайшер / Richard Fleischer
В ролях:
Бриджит Нильсен (Red Sonja), Арнольд Шварценеггер (Kalidor), Сэндал Бергман (Queen Gedren), Пол Л. Смит (Falkon), Эрни Рейес мл. (Prince Tarn), Рональд Лейси (Ikol), Пэт Роуч (Brytag), Терри Ричардс (Djart), Джанет Агрен (Varna, Red Sonja's Sister), Донна Остербур (Kendra the High Priestess), Лара Нашински (Gedren's Handmaid), Ганс Мейер (Red Sonja's Father)

Описание:
Могущественная колдунья королева Гедрен похищает древний магический талисман, способный уничтожить весь мир. Легендарный герой Калидор и отважная воительница Рыжая Соня оправляются в далекий, полный опасностей поход к Хаблаку - столице королевы Гедрен, чтобы сразиться с силами зла и спасти Землю от разрушения...
Рейтинг:


Качество: BDRip 1080p
Формат: MKV
Видео кодек: AVC
Аудио кодек:AC3
Видео: AVC, 1920x816 (2.35:1), 11722 kbps, 24 fps, 0,312 bpp
Аудио №1: русский / AC3 / 2.0 / 48 kHz / 448 kbps / 16 bit ||
Аудио №2: английский / AC3 / 5.1 / 48 kHz / 640 kbps / 16 bit
Навигация по главам: есть

Код:

General
Unique ID                                : 180225289989176835391083602308599545492 (0x879620D6792A5755A7FB9BCC58167E94)
Complete name                            : H:\RS_1080.mkv
Format                                   : Matroska
Format version                           : Version 2
File size                                : 7.95 GiB
Duration                                 : 1h 28mn
Overall bit rate mode                    : Variable
Overall bit rate                         : 12.8 Mbps
Movie name                               : Red Sonja_1080p_HDReactor.org
Encoded date                             : UTC 2010-05-26 15:34:43
Writing application                      : mkvmerge v3.0.0 ('Hang up your Hang-Ups') built on Dec 12 2009 15:20:35
Writing library                          : libebml v0.7.9 + libmatroska v0.8.1

Video
ID                                       : 1
Format                                   : AVC
Format/Info                              : Advanced Video Codec
Format profile                           : High@L4.1
Format settings, CABAC                   : Yes
Format settings, ReFrames                : 3 frames
Codec ID                                 : V_MPEG4/ISO/AVC
Duration                                 : 1h 28mn
Bit rate mode                            : Variable
Bit rate                                 : 11.7 Mbps
Maximum bit rate                         : 40.0 Mbps
Width                                    : 1 920 pixels
Height                                   : 816 pixels
Display aspect ratio                     : 2.35:1
Frame rate                               : 24.000 fps
Color space                              : YUV
Chroma subsampling                       : 4:2:0
Bit depth                                : 8 bits
Scan type                                : Progressive
Bits/(Pixel*Frame)                       : 0.312
Stream size                              : 7.12 GiB (90%)
Writing library                          : x264 core 80 r1376M 3feaec2
Encoding settings                        : cabac=1 / ref=4 / deblock=1:-3:-3 / analyse=0x3:0x113 / me=umh / subme=7 / psy=1 / psy_rd=0.9:0.1 / mixed_ref=1 / me_range=32 / chroma_me=1 / trellis=1 / 8x8dct=1 / cqm=0 / deadzone=21,11 / fast_pskip=0 / chroma_qp_offset=-6 / threads=6 / sliced_threads=0 / slices=4 / nr=0 / decimate=0 / mbaff=0 / constrained_intra=0 / bframes=7 / b_pyramid=1 / b_adapt=2 / b_bias=0 / direct=1 / wpredb=1 / wpredp=2 / keyint=24 / keyint_min=2 / scenecut=40 / rc_lookahead=0 / rc=2pass / mbtree=0 / bitrate=11722 / ratetol=1.0 / qcomp=0.60 / qpmin=10 / qpmax=51 / qpstep=4 / cplxblur=20.0 / qblur=0.5 / vbv_maxrate=40000 / vbv_bufsize=30000 / ip_ratio=1.40 / pb_ratio=1.30 / aq=1:1.00
Language                                 : English
Default                                  : No
Forced                                   : No

Audio #1
ID                                       : 2
Format                                   : AC-3
Format/Info                              : Audio Coding 3
Mode extension                           : CM (complete main)
Codec ID                                 : A_AC3
Duration                                 : 1h 28mn
Bit rate mode                            : Constant
Bit rate                                 : 448 Kbps
Channel(s)                               : 2 channels
Channel positions                        : Front: L R
Sampling rate                            : 48.0 KHz
Bit depth                                : 16 bits
Compression mode                         : Lossy
Stream size                              : 285 MiB (3%)
Language                                 : Russian
Default                                  : Yes
Forced                                   : No

Audio #2
ID                                       : 3
Format                                   : AC-3
Format/Info                              : Audio Coding 3
Mode extension                           : CM (complete main)
Codec ID                                 : A_AC3
Duration                                 : 1h 28mn
Bit rate mode                            : Constant
Bit rate                                 : 640 Kbps
Channel(s)                               : 6 channels
Channel positions                        : Front: L C R, Side: L R, LFE
Sampling rate                            : 48.0 KHz
Bit depth                                : 16 bits
Compression mode                         : Lossy
Stream size                              : 407 MiB (5%)
Language                                 : English
Default                                  : No
Forced                                   : No

Text #1
ID                                       : 4
Format                                   : UTF-8
Codec ID                                 : S_TEXT/UTF8
Codec ID/Info                            : UTF-8 Plain Text
Language                                 : Russian
Default                                  : Yes
Forced                                   : No

Text #2
ID                                       : 5
Format                                   : UTF-8
Codec ID                                 : S_TEXT/UTF8
Codec ID/Info                            : UTF-8 Plain Text
Language                                 : English
Default                                  : No
Forced                                   : No

Menu
00:00:00.000                             : en:00:00:00.000
00:07:06.417                             : en:00:07:06.417
00:15:37.708                             : en:00:15:37.708
00:19:23.458                             : en:00:19:23.458
00:23:47.792                             : en:00:23:47.792
00:27:52.583                             : en:00:27:52.583
00:34:47.542                             : en:00:34:47.542
00:37:26.250                             : en:00:37:26.250
00:42:18.167                             : en:00:42:18.167
00:48:27.333                             : en:00:48:27.333
00:57:03.500                             : en:00:57:03.500
01:03:40.833                             : en:01:03:40.833
01:07:55.000                             : en:01:07:55.000
01:12:25.625                             : en:01:12:25.625
01:17:42.083                             : en:01:17:42.083

скриншот   скриншот   скриншот   скриншот   скриншот  
pb.wtf



Скачать Рыжая Соня через торрент http://i5.imageban.ru/out/2014/09/21/4222f8219c484ae87b7fefcb890af9c8.jpg Скачать фильм Рыжая Соня через торрент бесплантно в хорошем качестве Описание: Могущественная колдунья королева Гедрен похищает древний магический талисман, способный уничтожить весь мир. Легендарный герой ... 10 10 13
Торрент: Зарегистрирован [2014-09-21 13:58] · скачан: 58 раз
Статус: √ проверено
Размер: 7.95 GB
Как cкачать? Как скачать Рыжая Соня через торрент | qTorrent

28-11-2019 20:33  

Отключить всю рекламу на сайте

    Дорогой пользователь! Огромная просьба, поблагодарите релизера, оцените раздачу и оставьте свои комментарий, если Вы скачали Рыжая Соня через торрент бесплатно! Внесите свою лепту в развитие PiratBit!
    Комментировать посты могут только пользователи прошедшие не сложную регистрацию
    Показать сообщения:    

    Рыжая Соня через торрент
    Скачать бесплатно Рыжая Соня
    Рыжая Соня скачать торрент
    Рыжая Соня смотреть онлайн
    Cкачать фильм Рыжая Соня бесплатно
    Рыжая Соня скачать торрент в хорошем качестве
    Рыжая Соня смотреть онлайн бесплатно в хорошем качестве


    Вы не можете начинать темы
    Вы не можете отвечать на сообщения
    Вы не можете редактировать свои сообщения
    Вы не можете удалять свои сообщения
    Вы не можете голосовать в опросах
    Вы не можете прикреплять файлы к сообщениям
    Вы можете скачивать файлы