Достать ножи: Стеклянная луковица

MVO

Добыча

Дубляж

Уэнсдэй

1 сезон

Тор

Дубляж

13 клиническая

1 сезон

Жестокая ночь

MVO

Одни из нас

1 сезон

Deluxe

pack

Рекомендуем

30

Пиратка

ВАЖНО

ВАЖНО

Ghostwire

Пиратка

jed

RePack

nioh2

RePack

RDR2

RePack

NEED FOR SPEED™ PAYBACK

RePack

скачать торрент

Кинопоиск HD

Острые козырьки 6 сезон

6 сезон

FAR CRY 6

RePack

скачать торрент

Лицензия

скачать торрент

MVO

1

1 сезон

скачать торрент

1 сезон

скачать торрент

Лицензия

  

Тёмная долина / Das finstere Tal (Андреас Прохазка) [2014 г., вестерн, HDRip, Профессиональный многоголосый закадровый ]

Тёмная долина через торрент pb.wtf

Размер: 706 MB | Добавлен: 8 лет 4 мес. назад | Торрент скачан:489 раз
Смотреть онлайн | Скачать | Поддержите нас   

21-09-2014 17:29 Тёмная долина Скачать торрент  

Тёмная долина / Das finstere Tal
Год выпуска: 2014
Страна: Австрия , Германия / Allegro Film, X-Filme Creative Pool
Жанр: вестерн
Продолжительность: 01:54:44
Перевод: Профессиональный многоголосый закадровый (студия «Позитив» по заказу «Русский Репортаж)

Режиссер: Андреас Прохазка

В ролях: Сэм Райли, Тобиас Моретти, Хельмут Хеуслер, Мартин Лойтгеб, Йоханнес Николусси, Клеменс Шик, Флориан Брюкнер, Ганс-Михаэль Реберг, Эрвин Штайнхауэр, Франц Ксавер Брюкнер

Описание: Тайными путями одинокий всадник пробирается в маленький городок высоко в Альпах. Никто не знает, откуда прибыл незнакомец и чего он хочет. Но в одном жители городка уверены — они не хотят, чтобы он оставался здесь.

Качество: HDRip
Формат: AVI
Видео кодек: XviD
Аудио кодек: MP3
Видео: MPEG4, XviD, 640x272 (2.35:1), 24.000 fps, 723 Kbps (0.173 bit/pixel)
Аудио: MP3, 48.0 KHz, 2 ch, 128 Kbps, CBR

скриншот   скриншот   скриншот   скриншот   скриншот   скриншот   скриншот   скриншот  

Общее
Полное имя : G:\кино\Тёмная долина.2014.HDRip.700MB.avi
Формат : AVI
Формат/Информация : Audio Video Interleave
Размер файла : 706 Мбайт
Продолжительность : 1 ч. 54 м.
Общий поток : 860 Кбит/сек
Программа кодирования : VirtualDubMod 1.5.10.3 | www.virtualdub-fr.org || (build 2550/release)
Библиотека кодирования : VirtualDubMod build 2550/release

Видео
Идентификатор : 0
Формат : MPEG-4 Visual
Профиль формата : Advanced [email protected]
Параметр BVOP формата : 2
Параметр QPel формата : Нет
Параметр GMC формата : Без точки перехода
Параметр матрицы формата : Default (H.263)
Идентификатор кодека : XVID
Идентификатор кодека/Подсказка : XviD
Продолжительность : 1 ч. 54 м.
Битрейт : 723 Кбит/сек
Ширина : 640 пикселей
Высота : 272 пикселя
Соотношение сторон : 2,35:1
Частота кадров : 24,000 кадра/сек
Цветовое пространство : YUV
Субдискретизация насыщенности : 4:2:0
Битовая глубина : 8 бит
Тип развёртки : Прогрессивная
Метод сжатия : С потерями
Бит/(Пиксели*Кадры) : 0.173
Размер потока : 593 Мбайт (84%)
Библиотека кодирования : XviD 1.2.1 (UTC 2008-12-04)

Аудио
Идентификатор : 1
Формат : MPEG Audio
Версия формата : Version 1
Профиль формата : Layer 3
Режим : Joint stereo
Идентификатор кодека : 55
Идентификатор кодека/Подсказка : MP3
Продолжительность : 1 ч. 54 м.
Вид битрейта : Постоянный
Битрейт : 128 Кбит/сек
Каналы : 2 канала
Частота : 48,0 КГц
Метод сжатия : С потерями
Размер потока : 105 Мбайт (15%)
Выравнивание : Соединение по промежуткам
Продолжительность промежутка : 42 мс. (1,00 видеокадр)
Время предзагрузки промежутка : 504 мс.
Библиотека кодирования : LAME3.99r
Настройки программы : -m j -V 4 -q 2 -lowpass 17 -b 128




Скачать Тёмная долина через торрент https://pic1.kartinco.top/images/71/52whb.jpg Скачать, смотреть онлайн Тёмная долина бесплантно в хорошем качестве Описание: Тайными путями одинокий всадник пробирается в маленький городок высоко в Альпах. Никто не знает, откуда прибыл незнакомец и чего ... 10 10 4
Торрент: Зарегистрирован [2014-09-21 17:29] · скачан: 489 раз
Статус: √ проверено
Размер: 706 MB
Как cкачать? Как скачать Тёмная долина через торрент | UTorrent

% Раздел Тема Автор DL S | L
Фильмы 2014 [DVDrip, WEB-DLRip, HDrip] [ 1.46 GB ] Тёмная долина / Das finstere Tal | Лицензия | HDRip-AVC MVO [Лицензия Ворон Скачать
1 | 0
Фильмы 2014 [DVDrip, WEB-DLRip, HDrip] [ 1.37 GB ] Тёмная долина / Das finstere Tal | Лицензия | HDRip MVO [Лицензия GEKADOL Скачать
1 | 0
Фильмы 2014 [DVDrip, WEB-DLRip, HDrip] [ 2.05 GB ] Тёмная долина / Das finstere Tal | Лицензия | HDRip MVO - Лицензия _KaisiK_ Скачать
1 | 0
Фильмы [HD 720p, 1080p] (Хороший звук DUB, MVO) [ 8.45 GB ] Тёмная долина / Das finstere Tal | | 1080p, Профессиональный, многоголосый _denis_100 Скачать
1 | 0
Фильмы (Blu-ray, BD-Remux, HDDVD) [ 21.07 GB ] Тёмная долина / Das finstere Tal | MVO+VO | BD Remux, MVO+VO Ворон Скачать
1 | 0
Фильмы [HD 720p, 1080p] (Хороший звук DUB, MVO) [ 4.68 GB ] Тёмная долина / Das finstere Tal | Лицензия | 720p,Профессиональный многоголосый [Лицензия -Lockdown- Скачать
1 | 0

28-11-2019 20:33  


Отключить вcю реклaмy на сайте, в т.ч. и в плеере онлайн просмотра!

21-09-2014 17:37 Тёмная долина Скачать торрент  

Ну как фильм подскажите? люблю вестерны)



21-09-2014 17:52 Тёмная долина Скачать торрент  

Фильм неплохой, посмотри. я тоже обожаю вестерны )



22-09-2014 02:46 Тёмная долина Скачать торрент  

Фильм реально срубил наповал! В первую очередь идеальный кастинг актеров (европейское кино сильно этим), во-вторых выбор натуры, в третьих идеальное внимание к деталям, ни одного расхожего банального штампа, хотя сам по себе сюжет "одинокого мстителя" в духе Иствуда конечно затаскан донельзя. Но этот фильм среди них всех просто алмаз! Никакой идиотской голливудщины. Любителем кинА класса вышел из кинотеатра и тут-же забыл о чем сюжет к просмотру не рекомендуется. Это кино из редких картин, которые навсегда западают в душу. Режиссер прямо переносит тебя в ту эпоху. Браво, 10 из 10, ничего подобного за последние лет 10 так не пробирало.



25-09-2014 15:03 Тёмная долина Скачать торрент  

Фильм реально клёвый!!!!!!!!!!!!!!Советую посмотреть.



25-09-2014 15:05 Тёмная долина Скачать торрент  

Клевый не всмысле драк а в сюжете и как он снят.



    Дорогой пользователь! Огромная просьба, поблагодарите релизера, оцените раздачу и оставьте свои комментарий, если Вы скачали Тёмная долина через торрент бесплатно!!
    Комментировать посты могут только пользователи прошедшие не сложную регистрацию
    Показать сообщения:    


    Тёмная долина через торрент
    Скачать бесплатно Тёмная долина
    Тёмная долина скачать торрент
    Тёмная долина смотреть онлайн
    Cкачать фильм Тёмная долина бесплатно
    Тёмная долина скачать торрент в хорошем качестве
    Тёмная долина смотреть онлайн бесплатно в хорошем качестве
    Вы не можете начинать темы
    Вы не можете отвечать на сообщения
    Вы не можете редактировать свои сообщения
    Вы не можете удалять свои сообщения
    Вы не можете голосовать в опросах
    Вы не можете прикреплять файлы к сообщениям
    Вы можете скачивать файлы
    Тёмная долина / Das finstere Tal [2014 г., вестерн, HDRip, Профессиональный многоголосый закадровый ] смотреть онлайн, скачать торрент picoco.icu