Ссылка на приватное зеркало всего за 1$. Внимание количество ограничено!!!


iTunes

1+1

iTunes

мы

WEB-DL

1

iTunes

Чернобыль

iTunes

Ральф против интернета

Лицензия

ПШазам

Лицензия

Оно 2

WEB-DL

30
pack

Вам бонус

ВАЖНО

!!Акция!!

Alien_RageХит недели

RePack

Resident Evil 21

ИГРА 18+

pack

RePack

jed

!!Акция!!

Alien_Rage

RePack

fifa19

RePack

Assassins Creed: Odyssey

RePack

NEED FOR SPEED™ PAYBACK

4 сезон

9 сезон

Бесстыжие 9 сезон

Все сериалы

все сериалы на PB.wtf

RePack

FAR CRY 5
Ребята, катастрофически не хватает 1900р. для оплаты серверов за Октябрь (всвязи с блокировками трафик упал в 3 раза), 1-2р., выручайте.
  

Мамарош / Mamaros (Момчило Мрдакович) [2013, драма, комедия, SATRip, Профессиональный многоголосый] pb.wtf

Мамарош через торрент pb.wtf

Размер: 1.45 GB | Добавлен: 5 лет 2 мес. назад | Торрент скачан:20 раз
Скачать  

22-09-2014 08:36 Мамарош Скачать торрент  

Мамарош / Mamaros


Год выпуска: 2013
Страна: Сербия, Германия, Венгрия
Жанр:драма, комедия
Продолжительность:01:38:21
Перевод:Профессиональный многоголосый-студия "СВ-Кадр"
Режиссер:Момчило Мрдакович

  • В ролях:

    Эрин О’Брайэн (Concession Girl), Сергей Трифунович (Policajac), Драган Бьелогрлич, Лорен Шварц (TV Cooking Show Audience), Мира Баняц (Mara), Богдан Диклич (Pera), Милан Марич (Decak vojnik), Милош Самолов (Mika), Жижа Стоянович, Власта Велисавлевич (Penzioner / Tajni agent), Фрэнк Аморузо (Traveler through immigration), Горан Радакович (Staklorezac Sima)

  • Описание:
    Белградский киномеханик Пера Илич по прозвищу Мамарош (в переводе с сербского «маменькин сынок»), мирно жил вместе с любимой мамой, показывая в своем кинотеатре старые фильмы, такие как «Веселые ребята» Александрова. Натовская бомбардировка Белграда в рамках операции «Ангел милосердия» заставила Перу и его маму спасаться бегством в Нью-Йорк. И если в Америке будет возможность показывать привезенных в багаже «Веселых ребят» и есть на обед фирменный мамин фасолевый суп с колбаской, то Сербию и ее странное сочетание православия, социализма, семейственности и цыганского абсурда Мамарош готов увезти в своем в сердце.

  • Мировая премьера:2 июля 2013

    Качество: SATRip
    Формат:AVI
    Видео кодек: XviD
    Аудио кодек:AC3
    Видео: XviD, 720x400 (16:9), 1912 kbps, 25 fps, 0,266 bpp
    Аудио: AC3 / 2.0 / 48 kHz / 192 kbps / 16 bit


    Код:

    General
    Complete name                            : D:\Торенты\Mamaros.2013.SATRip.1500mb.avi
    Format                                   : AVI
    Format/Info                              : Audio Video Interleave
    File size                                : 1.45 GiB
    Duration                                 : 1h 38mn
    Overall bit rate                         : 2 114 Kbps
    Movie name                               : Мамарош / Mamaros (2013)
    Writing application                      : VirtualDubMod 1.5.10.2 (build 2540/release)
    Copyright                                : miha2154

    Video
    ID                                       : 0
    Format                                   : MPEG-4 Visual
    Format profile                           : Advanced Simple@L5
    Format settings, BVOP                    : 1
    Format settings, QPel                    : No
    Format settings, GMC                     : No warppoints
    Format settings, Matrix                  : Custom
    Codec ID                                 : XVID
    Codec ID/Hint                            : XviD
    Duration                                 : 1h 38mn
    Bit rate                                 : 1 912 Kbps
    Width                                    : 720 pixels
    Height                                   : 400 pixels
    Display aspect ratio                     : 16:9
    Frame rate                               : 25.000 fps
    Color space                              : YUV
    Chroma subsampling                       : 4:2:0
    Bit depth                                : 8 bits
    Scan type                                : Progressive
    Compression mode                         : Lossy
    Bits/(Pixel*Frame)                       : 0.266
    Stream size                              : 1.31 GiB (90%)
    Writing library                          : XviD 65

    Audio
    ID                                       : 1
    Format                                   : AC-3
    Format/Info                              : Audio Coding 3
    Mode extension                           : CM (complete main)
    Codec ID                                 : 2000
    Duration                                 : 1h 38mn
    Bit rate mode                            : Constant
    Bit rate                                 : 192 Kbps
    Channel(s)                               : 2 channels
    Channel positions                        : Front: L R
    Sampling rate                            : 48.0 KHz
    Bit depth                                : 16 bits
    Compression mode                         : Lossy
    Stream size                              : 135 MiB (9%)
    Alignment                                : Split accross interleaves
    Interleave, duration                     : 40 ms (1.00 video frame)
    Interleave, preload duration             : 500 ms
    Title                                    : Профессиональный (многоголосый закадровый) Культура

    Скриншоты:
    pb.wtf



  • Скачать Мамарош через торрент http://pic.kartinco.top/images/6/stazu.jpg Скачать фильм Мамарош через торрент бесплантно в хорошем качестве Описание:Белградский киномеханик Пера Илич по прозвищу Мамарош (в переводе с сербского «маменькин сынок»), мирно жил вместе с любимой ... 10 10 2
    Торрент: Зарегистрирован [2014-09-22 08:36] · скачан: 20 раз
    Статус: √ проверено
    Размер: 1.45 GB
    Как cкачать? Как скачать Мамарош через торрент | qTorrent

    28-11-2019 20:33  

    Отключить всю рекламу на сайте

      Дорогой пользователь! Огромная просьба, поблагодарите релизера, оцените раздачу и оставьте свои комментарий, если Вы скачали Мамарош через торрент бесплатно! Внесите свою лепту в развитие PiratBit!
      Комментировать посты могут только пользователи прошедшие не сложную регистрацию
      Показать сообщения:    

      Мамарош через торрент
      Скачать бесплатно Мамарош
      Мамарош скачать торрент
      Мамарош смотреть онлайн
      Cкачать фильм Мамарош бесплатно
      Мамарош скачать торрент в хорошем качестве
      Мамарош смотреть онлайн бесплатно в хорошем качестве


      Вы не можете начинать темы
      Вы не можете отвечать на сообщения
      Вы не можете редактировать свои сообщения
      Вы не можете удалять свои сообщения
      Вы не можете голосовать в опросах
      Вы не можете прикреплять файлы к сообщениям
      Вы можете скачивать файлы