Ссылка на приватное зеркало нашего сайта всего за 1$. Внимание количество ограничено!!!

2 сезон

iTunes

1 сезон

1

iTunes

iTunes

iTunes

1 сезон

RePack

30

ИГРА 18+

pack

ВАЖНО

!!Акция!!

Alien_RageХит недели

RePack

MK11
pack

Забери бонус

RePack

jed

!!Акция!!

Alien_Rage

RePack

fifa19

RePack

Assassins Creed: Odyssey

RePack

NEED FOR SPEED™ PAYBACK

4 сезон

9 сезон

Бесстыжие 9 сезон

Все сериалы

все сериалы на PB.wtf

RePack

FAR CRY 5
  

Чужой среди нас / A Stranger Among Us (Сидни Люмет) [1992г., драма, мелодрама, криминал, BDRip 720p] MVO, AVO pb.wtf

Чужой среди нас через торрент pb.wtf

Размер: 5.26 GB | Добавлен: 6 лет 1 мес. назад | Торрент скачан:6 раз
Скачать  

22-09-2014 14:41 Чужой среди нас Скачать торрент  

Чужой среди нас / A Stranger Among Us
Год выпуска: 1992
Страна: США
Жанр: драма, мелодрама, криминал
Продолжительность: 01:49:17
Перевод: профессиональный многоголосый, авторский
Субтитры: английские

Режиссёр: Сидни Люмет

В ролях: Мелани Гриффит, Джон Пэнкоу, Трэйси Поллан, Ли Ричардсон, Миа Сара, Джейми Шеридан, Эрик Тал, Дэвид Маргулис, Бертт Харрис, Джеймс Гандольфини, Крис Латта, Джейк Уэбер, Дэвид Розенбаум, Рут Вул, Эдвард Роджерс III, Морис Шелл, Ира Рубин, Франсуаза Гранивиль’Дэнни’, Рена Софер, Шифра Лерер, Джим Лавлетт, Джек Гилл, Стив Хэмилтон, Дрю Элиот, Джон Луис Фишер, Джек Бирс, Абе Шейнберг, Джей Брайан Уинник

Описание: В нью-йоркской общине хасидских евреев случилось экстраординарное происшествие: исчез молодой человек по имени Якоб Клаусман. Одновременно пропали алмазы на сумму 720000 долларов. Ни раввин, ни другие члены общины и не думают подозревать Якоба в краже и бегстве; и то, и другое противоречит писаным и неписаным законам жизни хасидских евреев. Правда, в полицию им всё-таки пришлось обратиться, а потому к расследованию приступил опытный детектив - офицер полиции по имени Эмили.



Качество: BDRip 720p Сравнение с исходником
Формат: MKV
Видео кодек: H.264
Аудио кодек: AC3
Видео: 1280x720, 6182 kbps, 23.976 кадра/сек
Аудио 1: русский, AC3, 192 kbps, 2 ch, 48 kHz [профессиональный многоголосый]
Аудио 2: русский, AC3, 192 kbps, 2 ch, 48 kHz [авторский, Алексей Михалёв]
Аудио 3: английский, AC3, 192 kbps, 2 ch, 48 kHz [оригинал]

Имеются неименованные главы/чаптеры.

Автор рипа msltel
Золотая малина, 1993 год
Номинации (1):
Худшая женская роль второго плана (Трэйси Поллан)

Каннский кинофестиваль, 1992 год
Номинации (1):
Золотая пальмовая ветвь
Общее
Уникальный идентификатор : 227585515486272364126925621317590579345 (0xAB37603C2FE35718B8E45CD8563BF891)
Полное имя : D:VideoChugoj sredi nas.1992.BDRip.720p.mkv
Формат : Matroska
Версия формата : Version 4 / Version 2
Размер файла : 5,26 Гбайт
Продолжительность : 1 ч. 49 м.
Общий поток : 6895 Кбит/сек
Дата кодирования : UTC 2014-08-28 06:46:32
Программа кодирования : mkvmerge v6.9.1 ('Blue Panther') 64bit built on Apr 18 2014 18:23:38
Библиотека кодирования : libebml v1.3.0 + libmatroska v1.4.1

Видео
Идентификатор : 1
Формат : AVC
Формат/Информация : Advanced Video Codec
Профиль формата : High@L4.1
Параметр CABAC формата : Да
Параметр ReFrames формата : 9 кадров
Идентификатор кодека : V_MPEG4/ISO/AVC
Продолжительность : 1 ч. 49 м.
Битрейт : 6182 Кбит/сек
Ширина : 1280 пикселей
Высота : 720 пикселей
Соотношение сторон : 16:9
Режим частоты кадров : Постоянный
Частота кадров : 23,976 кадра/сек
Цветовое пространство : YUV
Субдискретизация насыщенности : 4:2:0
Битовая глубина : 8 бит
Тип развёртки : Прогрессивная
Бит/(Пиксели*Кадры) : 0.280
Размер потока : 4,72 Гбайт (90%)
Заголовок : BDRip -- STarankov
Библиотека кодирования : x264 core 142 r2431 ac76440
Настройки программы : cabac=1 / ref=9 / deblock=1:-1:-1 / analyse=0x3:0x113 / me=umh / subme=10 / psy=1 / psy_rd=1.00:0.15 / mixed_ref=1 / me_range=32 / chroma_me=1 / trellis=2 / 8x8dct=1 / cqm=0 / deadzone=21,11 / fast_pskip=0 / chroma_qp_offset=-3 / threads=6 / lookahead_threads=1 / sliced_threads=0 / nr=0 / decimate=1 / interlaced=0 / bluray_compat=0 / constrained_intra=0 / bframes=8 / b_pyramid=2 / b_adapt=2 / b_bias=0 / direct=1 / weightb=1 / open_gop=0 / weightp=2 / keyint=230 / keyint_min=23 / scenecut=40 / intra_refresh=0 / rc_lookahead=40 / rc=crf / mbtree=0 / crf=19.1 / qcomp=0.60 / qpmin=0 / qpmax=69 / qpstep=4 / vbv_maxrate=40000 / vbv_bufsize=50000 / crf_max=0.0 / nal_hrd=none / filler=0 / ip_ratio=1.40 / pb_ratio=1.30 / aq=1:1.00
Язык : English
Default : Да
Forced : Нет

Аудио #1
Идентификатор : 2
Формат : AC-3
Формат/Информация : Audio Coding 3
Расширение режима : CM (complete main)
Параметр Endianness формата : Big
Идентификатор кодека : A_AC3
Продолжительность : 1 ч. 49 м.
Вид битрейта : Постоянный
Битрейт : 192 Кбит/сек
Каналы : 2 канала
Расположение каналов : Front: L R
Частота : 48,0 КГц
Битовая глубина : 16 бит
Метод сжатия : С потерями
Размер потока : 150 Мбайт (3%)
Заголовок : MVO
Язык : Russian
Default : Да
Forced : Нет

Аудио #2
Идентификатор : 3
Формат : AC-3
Формат/Информация : Audio Coding 3
Расширение режима : CM (complete main)
Параметр Endianness формата : Big
Идентификатор кодека : A_AC3
Продолжительность : 1 ч. 49 м.
Вид битрейта : Постоянный
Битрейт : 192 Кбит/сек
Каналы : 2 канала
Расположение каналов : Front: L R
Частота : 48,0 КГц
Битовая глубина : 16 бит
Метод сжатия : С потерями
Размер потока : 150 Мбайт (3%)
Заголовок : AVO (Алексей Михалёв)
Язык : Russian
Default : Нет
Forced : Нет

Аудио #3
Идентификатор : 4
Формат : AC-3
Формат/Информация : Audio Coding 3
Расширение режима : CM (complete main)
Параметр Endianness формата : Big
Идентификатор кодека : A_AC3
Продолжительность : 1 ч. 49 м.
Вид битрейта : Постоянный
Битрейт : 192 Кбит/сек
Каналы : 2 канала
Расположение каналов : Front: L R
Частота : 48,0 КГц
Битовая глубина : 16 бит
Метод сжатия : С потерями
Размер потока : 150 Мбайт (3%)
Заголовок : Original
Язык : English
Default : Нет
Forced : Нет

Текст
Идентификатор : 5
Формат : UTF-8
Идентификатор кодека : S_TEXT/UTF8
Идентификатор кодека/Информация : UTF-8 Plain Text
Заголовок : английский
Язык : English
Default : Нет
Forced : Нет

Меню
00:00:00.000 : en:00:00:00.000
00:05:44.261 : en:00:05:44.261
00:12:41.761 : en:00:12:41.761
00:24:37.184 : en:00:24:37.184
00:35:19.868 : en:00:35:19.868
00:45:00.698 : en:00:45:00.698
00:55:09.723 : en:00:55:09.723
01:07:42.433 : en:01:07:42.433
01:20:11.140 : en:01:20:11.140
01:25:13.692 : en:01:25:13.692
01:34:43.344 : en:01:34:43.344
01:46:49.945 : en:01:46:49.945
pb.wtf



Скачать Чужой среди нас через торрент http://i67.fastpic.ru/big/2014/0922/a3/eb7d4efec3056a05747a42424bb69da3.jpg Скачать фильм Чужой среди нас через торрент бесплантно в хорошем качестве Описание: В нью-йоркской общине хасидских евреев случилось экстраординарное происшествие: исчез молодой человек по имени Якоб Клаусман. ... 5 10 1
Торрент: Зарегистрирован [2014-09-22 14:41] · скачан: 6 раз
Статус: √ проверено
Размер: 5.26 GB
Как cкачать? Как скачать Чужой среди нас через торрент | qTorrent

% Раздел Тема Автор DL S | L
Фильмы [HD 720p, 1080p] (Хороший звук DUB, MVO) [ 11.97 GB ] Чужой среди нас / A Stranger Among Us [1992 BDRip 1080p] MVO AVO msltel Скачать
1 | 0

28-11-2019 20:33  

Отключить всю рекламу на сайте

    Дорогой пользователь! Огромная просьба, поблагодарите релизера, оцените раздачу и оставьте свои комментарий, если Вы скачали Чужой среди нас через торрент бесплатно! Внесите свою лепту в развитие PiratBit!
    Комментировать посты могут только пользователи прошедшие не сложную регистрацию
    Показать сообщения:    

    Чужой среди нас через торрент
    Скачать бесплатно Чужой среди нас
    Чужой среди нас скачать торрент
    Чужой среди нас смотреть онлайн
    Cкачать фильм Чужой среди нас бесплатно
    Чужой среди нас скачать торрент в хорошем качестве
    Чужой среди нас смотреть онлайн бесплатно в хорошем качестве


    Вы не можете начинать темы
    Вы не можете отвечать на сообщения
    Вы не можете редактировать свои сообщения
    Вы не можете удалять свои сообщения
    Вы не можете голосовать в опросах
    Вы не можете прикреплять файлы к сообщениям
    Вы можете скачивать файлы