Ссылка на приватное зеркало нашего сайта всего за 1$. Внимание количество ограничено!!!

2 сезон

iTunes

1 сезон

1

2 сезон

2 сезон

iTunes

1 сезон

RePack

30

Новинка

ВАЖНО

ИГРА 18+

pack

RePack

MK11
pack

Забери бонус

RePack

jed

!!Акция!!

Alien_Rage

RePack

fifa19

RePack

Assassins Creed: Odyssey

RePack

NEED FOR SPEED™ PAYBACK

4 сезон

9 сезон

Бесстыжие 9 сезон

Все сериалы

все сериалы на PB.wtf

RePack

FAR CRY 5
  

Злоумышленники / Intruders / Сезон: 1 / Серии 1-8 из 8 (Даниэль Штамм / Daniel Stamm, Эдуардо Санчес / Eduardo Sánchez) [2014, США, триллер, детектив, WEB-DLRip, MVO] [IdeaFilm] pb.wtf

Злоумышленники через торрент pb.wtf

Размер: 4.29 GB | Добавлен: 6 лет 1 мес. назад | Торрент скачан:41 раз
Скачать  

23-09-2014 08:11 Злоумышленники Скачать торрент  

Злоумышленники / Intruders


  • Год выпуска: 2014
  • Страна: США
  • Жанр: триллер, детектив
  • Продолжительность: 00:43:31 (Серия)
  • Перевод: Профессиональный многоголосый закадровый [IdeaFilm]

  • Режиссер: Даниэль Штамм / Daniel Stamm, Эдуардо Санчес / Eduardo Sánchez
  • В ролях:

    Джон Симм (Jack Whalen), Соня Саломяа (Allison O'Donnell), Дэрил Шаттлворф (Detective Ron Blanchard), Тоби Харгрейв (Tim Truth), Карин Коновал (Bobbi Zimmerman), Матиас Ретамаль (Juvenal), Рукия Бернард (Karen), Том Батлер (Brud Zimmerman), Алессандро Джулиани (Evan Shepherd), Тася Телес (Daniella), Shanae Tomasevich (Paige Crane), Эндрю Эйрли (Todd Crane)

  • Описание:
    Сюжет сериала вращается вокруг тайного общества, члены которого обнаружили способ поселяться в телах других людей, таким образом, обретая бессмертие. Джек Уэйлен - человек, прошлое которого покрыто мраком и тайнами. Когда-то он работал в полиции, сейчас же он живет вместе со своей женой Эми. Джек хочет забыть все, что с ним произошло и игнорирует ошибки своего прошлого. Вскоре Эми исчезает и ему приходится начать расследование, и становится понятно, что к этому каким-то образом причастно тайное общество. Вскоре в городе начинают происходить не связанные между собой загадочные события. Расследование, изменит его взгляд на природу человека.
  • Рейтинг:



  • Качество: WEB-DLRip
  • Формат: :AVI
  • Видео кодек: XviD
  • Аудио кодек: MP3
  • Видео: 720x400 (16:9), 1472 kbps, 23,976 fps, 0,213 bpp
  • Аудио: 2.0 / 48 kHz / 128 kbps
  • Релиз от: GEKADOL

    Код:

    Внимание! Раздача ведётся путём добавления новых серий; при каждом добавлении создаётся новый торрент. Чтобы начать докачку новой серии, пользователям необходимо сделать следующее:
    (1) остановить скачивание,
    (2) удалить старый торрент у себя из клиента (старые серии удалять не надо),
    (3) скачать новый торрент и запустить его у себя в клиенте вместо старого, при этом указать клиенту путь в старую папку куда и должно происходить скачивание новых серий.
    Ваш клиент при этом должен произвести хеширование (проверку) старой папки (если не производит сам - помогите ему сделать это), и будет докачивать только те серии которых у вас ещё нет. Старые серии при этом не удаляются, а продолжают раздаваться!
    Eсли вы уже удалили старые серии, то предотвратить повторную закачку старых серий можно, отжав галочку в соответсвующих местах при запуске нового торрента. По возможности, желательно не удалять старые серии как можно дольше чтобы релизёр не столько продолжал раздавать старые серии, а смог сконцентрироваться на новых.


    Код:

    General
    Complete name                            : D:\Фильмы\Intruders.S1.WEB-DLRip.Ideafilm\Intruders.s01e04.IDEAFILM.avi
    Format                                   : AVI
    Format/Info                              : Audio Video Interleave
    File size                                : 501 MiB
    Duration                                 : 43mn 31s
    Overall bit rate                         : 1 609 Kbps
    Writing application                      : VirtualDubMod 1.5.10.3 | www.virtualdub-fr.org || (build 2550/release)
    Writing library                          : VirtualDubMod build 2550/release

    Video
    ID                                       : 0
    Format                                   : MPEG-4 Visual
    Format profile                           : Advanced Simple@L5
    Format settings, BVOP                    : 1
    Format settings, QPel                    : No
    Format settings, GMC                     : No warppoints
    Format settings, Matrix                  : Default (H.263)
    Codec ID                                 : XVID
    Codec ID/Hint                            : XviD
    Duration                                 : 43mn 31s
    Bit rate                                 : 1 472 Kbps
    Width                                    : 720 pixels
    Height                                   : 400 pixels
    Display aspect ratio                     : 16:9
    Frame rate                               : 23.976 fps
    Color space                              : YUV
    Chroma subsampling                       : 4:2:0
    Bit depth                                : 8 bits
    Scan type                                : Progressive
    Compression mode                         : Lossy
    Bits/(Pixel*Frame)                       : 0.213
    Stream size                              : 458 MiB (91%)
    Writing library                          : XviD 1.2.1 (UTC 2008-12-04)

    Audio
    ID                                       : 1
    Format                                   : MPEG Audio
    Format version                           : Version 1
    Format profile                           : Layer 3
    Codec ID                                 : 55
    Codec ID/Hint                            : MP3
    Duration                                 : 43mn 31s
    Bit rate mode                            : Constant
    Bit rate                                 : 128 Kbps
    Channel(s)                               : 2 channels
    Sampling rate                            : 48.0 KHz
    Compression mode                         : Lossy
    Stream size                              : 39.9 MiB (8%)
    Alignment                                : Aligned on interleaves
    Interleave, duration                     : 42 ms (1.00 video frame)
    Interleave, preload duration             : 504 ms
    Writing library                          : LAME3.99r
    Encoding settings                        : -m s -V 4 -q 2 -lowpass 17 -b 128


    Скриншоты:
    скриншот   скриншот   скриншот   скриншот   скриншот  
    скриншот  

    Раздача ведётся путём добавления новых серий. Добавлена 8 серия (29.10.2014).Просьба перекачать торрент файл.

    pb.wtf



  • Скачать Злоумышленники через торрент http://i65.fastpic.ru/big/2014/0923/72/1b4afb4d30a8c7b56c490b427a022672.jpg Скачать фильм Злоумышленники через торрент бесплантно в хорошем качестве Описание: Сюжет сериала вращается вокруг тайного общества, члены которого обнаружили способ поселяться в телах других людей, таким образом, ... 10 10 6
    Info! Золотая раздача, скачанное не засчитывается.
    Торрент: Зарегистрирован [2014-10-29 04:05] · скачан: 41 раз
    Статус: √ проверено
    Размер: 4.29 GB
    Как cкачать? Как скачать Злоумышленники через торрент | qTorrent

    28-11-2019 20:33  

    Отключить всю рекламу на сайте

      Дорогой пользователь! Огромная просьба, поблагодарите релизера, оцените раздачу и оставьте свои комментарий, если Вы скачали Злоумышленники через торрент бесплатно! Внесите свою лепту в развитие PiratBit!
      Комментировать посты могут только пользователи прошедшие не сложную регистрацию
      Показать сообщения:    

      Злоумышленники через торрент
      Скачать бесплатно Злоумышленники
      Злоумышленники скачать торрент
      Злоумышленники смотреть онлайн
      Cкачать фильм Злоумышленники бесплатно
      Злоумышленники скачать торрент в хорошем качестве
      Злоумышленники смотреть онлайн бесплатно в хорошем качестве


      Вы не можете начинать темы
      Вы не можете отвечать на сообщения
      Вы не можете редактировать свои сообщения
      Вы не можете удалять свои сообщения
      Вы не можете голосовать в опросах
      Вы не можете прикреплять файлы к сообщениям
      Вы можете скачивать файлы