Ссылка на приватное зеркало нашего сайта всего за 1$. Внимание количество ограничено!!!

2 сезон

iTunes

1 сезон

1

iTunes

iTunes

iTunes

1 сезон

RePack

30

ИГРА 18+

pack

ВАЖНО

!!Акция!!

Alien_RageХит недели

RePack

MK11
pack

Забери бонус

RePack

jed

!!Акция!!

Alien_Rage

RePack

fifa19

RePack

Assassins Creed: Odyssey

RePack

NEED FOR SPEED™ PAYBACK

4 сезон

9 сезон

Бесстыжие 9 сезон

Все сериалы

все сериалы на PB.wtf

RePack

FAR CRY 5
  

Следствие ведут Колобки (Александр Татарский, Игорь Ковалев) (4 серии из 4) [1986-1987, мультфильм, короткометражка, комедия, DVDRip, Оригинальный] pb.wtf

Следствие ведут Колобки через торрент pb.wtf

Раздают: 2 [ 0 KB/s ]
Размер: 383 MB | Добавлен: 6 лет 1 мес. назад | Торрент скачан:438 раз
Скачать  

23-09-2014 14:58 Следствие ведут Колобки Скачать торрент  

Следствие ведут Колобки


Год выпуска: 1986
Страна: СССР
Жанр:мультфильм, короткометражка, комедия
Продолжительность:00:10:21
Перевод:Оригинальный
Режиссер:Александр Татарский, Игорь Ковалев

  • В ролях:

    Леонид Броневой (Шеф, озвучка (1-2 серии)), Алексей Птицын (Коллега, озвучка), Станислав Федосов (озвучка), Михаил Евдокимов (Шеф, озвучка (3-4 серии))

  • Описание:
    Город, где живет пара чокнутых колобков-детективов, где в поисках чего бы стянуть шляются усатый бандюга Карбофос и усатый ворюга Кот, где обитают полосатые слоны и гордые птицы, а также издают районную Кривду. Одним словом, полный дурдом! Ну и естественно, любая русская народная сказка начинается с простого и самого банального похищения слона. Ну, скажете вы, неужто мы не слышали, что все истории начинаются именно так...


    Качество: DVDRip
    Формат:AVI
    Видео кодек: XviD
    Аудио кодек:AC3
    Видео: XviD, 720x544 (4:3), 2404 kbps, 25 fps, 0,246 bpp
    Аудио: AC3 / 2.0 / 48 kHz / 192 kbps / 16 bit


    Код:

    General
    Complete name                            : D:\Торенты\Следствие ведут Колобки (1-4)\Следствие ведут Колобки 1-2.avi
    Format                                   : AVI
    Format/Info                              : Audio Video Interleave
    File size                                : 193 MiB
    Duration                                 : 10mn 21s
    Overall bit rate                         : 2 606 Kbps
    Writing application                      : VirtualDubMod 1.5.10.2 (build 2540/release)
    Writing library                          : VirtualDubMod build 2540/release

    Video
    ID                                       : 0
    Format                                   : MPEG-4 Visual
    Format profile                           : Advanced Simple@L5
    Format settings, BVOP                    : 2
    Format settings, QPel                    : Yes
    Format settings, GMC                     : No warppoints
    Format settings, Matrix                  : Custom
    Muxing mode                              : Packed bitstream
    Codec ID                                 : XVID
    Codec ID/Hint                            : XviD
    Duration                                 : 10mn 21s
    Bit rate                                 : 2 404 Kbps
    Width                                    : 720 pixels
    Height                                   : 544 pixels
    Display aspect ratio                     : 4:3
    Frame rate                               : 25.000 fps
    Color space                              : YUV
    Chroma subsampling                       : 4:2:0
    Bit depth                                : 8 bits
    Scan type                                : Progressive
    Compression mode                         : Lossy
    Bits/(Pixel*Frame)                       : 0.246
    Stream size                              : 178 MiB (92%)
    Writing library                          : XviD 1.2.1 (UTC 2008-12-04)

    Audio
    ID                                       : 1
    Format                                   : AC-3
    Format/Info                              : Audio Coding 3
    Mode extension                           : CM (complete main)
    Codec ID                                 : 2000
    Duration                                 : 10mn 21s
    Bit rate mode                            : Constant
    Bit rate                                 : 192 Kbps
    Channel(s)                               : 2 channels
    Channel positions                        : Front: L R
    Sampling rate                            : 48.0 KHz
    Bit depth                                : 16 bits
    Compression mode                         : Lossy
    Stream size                              : 14.2 MiB (7%)
    Alignment                                : Split accross interleaves
    Interleave, duration                     : 40 ms (1.00 video frame)
    Interleave, preload duration             : 500 ms

    Скриншоты:



    © Оформление by Ravenpb.wtf



  • Скачать Следствие ведут Колобки через торрент http://pic.kartinco.top/images/6/stazu.jpg Скачать фильм Следствие ведут Колобки через торрент бесплантно в хорошем качестве Описание:Город, где живет пара чокнутых колобков-детективов, где в поисках чего бы стянуть шляются усатый бандюга Карбофос и усатый ворюга ... 10 10 25
    Торрент: Зарегистрирован [2014-09-23 14:58] · скачан: 438 раз
    Статус: √ проверено
    Размер: 383 MB
    Как cкачать? Как скачать Следствие ведут Колобки через торрент | qTorrent

    % Раздел Тема Автор DL S | L
    Наши мультфильмы [ 277 MB ] Следствие ведут Колобки [1986 мультфильм DVDRip] манук1977 Скачать
    1 | 0

    28-11-2019 20:33  

    Отключить всю рекламу на сайте

    23-09-2014 17:25 Следствие ведут Колобки Скачать торрент  

    Супермульт для всех поколений pb.wtf



    23-09-2014 18:12 Следствие ведут Колобки Скачать торрент  

    demiurgo писал(а):

    Супермульт для всех поколений

    Точнее тут наверно и не сказать! yespb.wtf



    19-12-2014 21:32 Следствие ведут Колобки Скачать торрент  

    Вот спасибо так спасибо !!! Это один из лучших мультфильмов. Смотреть одно удовольствие. И даже детям моим он ОЧЕНЬ понравился. Огромное СПАСИБО автору темы !!!pb.wtf



      Дорогой пользователь! Огромная просьба, поблагодарите релизера, оцените раздачу и оставьте свои комментарий, если Вы скачали Следствие ведут Колобки через торрент бесплатно! Внесите свою лепту в развитие PiratBit!
      Комментировать посты могут только пользователи прошедшие не сложную регистрацию
      Показать сообщения:    

      Следствие ведут Колобки через торрент
      Скачать бесплатно Следствие ведут Колобки
      Следствие ведут Колобки скачать торрент
      Следствие ведут Колобки смотреть онлайн
      Cкачать фильм Следствие ведут Колобки бесплатно
      Следствие ведут Колобки скачать торрент в хорошем качестве
      Следствие ведут Колобки смотреть онлайн бесплатно в хорошем качестве


      Вы не можете начинать темы
      Вы не можете отвечать на сообщения
      Вы не можете редактировать свои сообщения
      Вы не можете удалять свои сообщения
      Вы не можете голосовать в опросах
      Вы не можете прикреплять файлы к сообщениям
      Вы можете скачивать файлы