Ссылка на приватное зеркало нашего сайта всего за 1$. Внимание количество ограничено!!!

2 сезон

iTunes

1 сезон

1

iTunes

iTunes

iTunes

1 сезон

RePack

30

ИГРА 18+

pack

ВАЖНО

!!Акция!!

Alien_RageХит недели

RePack

MK11
pack

Забери бонус

RePack

jed

!!Акция!!

Alien_Rage

RePack

fifa19

RePack

Assassins Creed: Odyssey

RePack

NEED FOR SPEED™ PAYBACK

4 сезон

9 сезон

Бесстыжие 9 сезон

Все сериалы

все сериалы на PB.wtf

RePack

FAR CRY 5
  

Пограничная полоса / The Borderlands (Эллиот Голднер) [2013 г., триллер, ужасы, HDRip,Любительский одноголосый"den904"] pb.wtf

Пограничная полоса через торрент pb.wtf

Размер: 1.46 GB | Добавлен: 6 лет 1 мес. назад | Торрент скачан:125 раз
Скачать  

23-09-2014 16:45 Пограничная полоса Скачать торрент  

Пограничная полоса / The Borderlands
Год выпуска: 2013
Страна: Великобритания / Metrodome Distribution
Жанр: триллер, ужасы
Продолжительность: 01:32:38
Перевод: Любительский одноголосый (den904)

Режиссер: Эллиот Голднер

В ролях: Гордон Кеннеди, Робин Хилл, Эйдан МакАрдл, Сара Аннис, Ли Арнольд, Дрю Кассон, Питер Чарлтон, Маркус Каннингэм, Патрик Годфри, Кевин Джонсон

Описание: История команды людей, которая по приглашению Ватикана исследует загадочные паранормальные происшествия, которые регулярно случаются в отдаленной британской церкви…

Качество: HDRip
Формат: AVI
Видео кодек: XviD
Аудио кодек: AC3
Видео: MPEG4, XviD, 720x400 (16:9), 23.976 fps, 2 059 Kbps (0.298 bit/pixel)
Аудио: AC-3, 48.0 KHz, 2 ch, 192 Kbps, CBR


Общее
Полное имя : G:\кино\The.Borderlands.2013.HDRip.avi
Формат : AVI
Формат/Информация : Audio Video Interleave
Размер файла : 1,46 Гбайт
Продолжительность : 1 ч. 32 м.
Общий поток : 2260 Кбит/сек
Программа кодирования : VirtualDubMod 1.5.10.3 | www.virtualdub-fr.org || (build 2550/release)
Библиотека кодирования : VirtualDubMod build 2550/release

Видео
Идентификатор : 0
Формат : MPEG-4 Visual
Профиль формата : Advanced Simple@L5
Параметр BVOP формата : 2
Параметр QPel формата : Нет
Параметр GMC формата : Без точки перехода
Параметр матрицы формата : Default (H.263)
Идентификатор кодека : XVID
Идентификатор кодека/Подсказка : XviD
Продолжительность : 1 ч. 32 м.
Битрейт : 2059 Кбит/сек
Ширина : 720 пикселей
Высота : 400 пикселей
Соотношение сторон : 16:9
Частота кадров : 23,976 кадра/сек
Цветовое пространство : YUV
Субдискретизация насыщенности : 4:2:0
Битовая глубина : 8 бит
Тип развёртки : Прогрессивная
Метод сжатия : С потерями
Бит/(Пиксели*Кадры) : 0.298
Размер потока : 1,33 Гбайт (91%)
Библиотека кодирования : XviD 1.2.1 (UTC 2008-12-04)

Аудио
Идентификатор : 1
Формат : AC-3
Формат/Информация : Audio Coding 3
Расширение режима : CM (complete main)
Параметр Endianness формата : Big
Идентификатор кодека : 2000
Продолжительность : 1 ч. 32 м.
Вид битрейта : Постоянный
Битрейт : 192 Кбит/сек
Каналы : 2 канала
Расположение каналов : Front: L R
Частота : 48,0 КГц
Битовая глубина : 16 бит
Метод сжатия : С потерями
Размер потока : 127 Мбайт (8%)
Выравнивание : Разделение по промежуткам
Продолжительность промежутка : 42 мс. (1,00 видеокадр)
Время предзагрузки промежутка : 500 мс.

pb.wtf



Скачать Пограничная полоса через торрент http://pic.kartinco.top/images/7/tl1x3.jpg Скачать фильм Пограничная полоса через торрент бесплантно в хорошем качестве Описание: История команды людей, которая по приглашению Ватикана исследует загадочные паранормальные происшествия, которые регулярно ... 7.8 10 4
Торрент: Зарегистрирован [2014-09-23 16:45] · скачан: 125 раз
Статус: T временная
Размер: 1.46 GB
Как cкачать? Как скачать Пограничная полоса через торрент | qTorrent

28-11-2019 20:33  

Отключить всю рекламу на сайте

    Дорогой пользователь! Огромная просьба, поблагодарите релизера, оцените раздачу и оставьте свои комментарий, если Вы скачали Пограничная полоса через торрент бесплатно! Внесите свою лепту в развитие PiratBit!
    Комментировать посты могут только пользователи прошедшие не сложную регистрацию
    Показать сообщения:    

    Пограничная полоса через торрент
    Скачать бесплатно Пограничная полоса
    Пограничная полоса скачать торрент
    Пограничная полоса смотреть онлайн
    Cкачать фильм Пограничная полоса бесплатно
    Пограничная полоса скачать торрент в хорошем качестве
    Пограничная полоса смотреть онлайн бесплатно в хорошем качестве


    Вы не можете начинать темы
    Вы не можете отвечать на сообщения
    Вы не можете редактировать свои сообщения
    Вы не можете удалять свои сообщения
    Вы не можете голосовать в опросах
    Вы не можете прикреплять файлы к сообщениям
    Вы можете скачивать файлы