Ссылка на приватное зеркало нашего сайта всего за 1$. Внимание количество ограничено!!!

2 сезон

iTunes

1 сезон

1

iTunes

iTunes

iTunes

1 сезон

RePack

30

ИГРА 18+

pack

ВАЖНО

!!Акция!!

Alien_RageХит недели

RePack

MK11
pack

Забери бонус

RePack

jed

!!Акция!!

Alien_Rage

RePack

fifa19

RePack

Assassins Creed: Odyssey

RePack

NEED FOR SPEED™ PAYBACK

4 сезон

9 сезон

Бесстыжие 9 сезон

Все сериалы

все сериалы на PB.wtf

RePack

FAR CRY 5
  

Опасный Джек / Ужас в больнице / Hazard Jack (Дэвид Уорт) [2014, ужасы, HDRip, Любительский (одноголосый) [Xixidok] pb.wtf

Опасный Джек через торрент pb.wtf

Размер: 1.37 GB | Добавлен: 6 лет 1 мес. назад | Торрент скачан:210 раз
Скачать  

24-09-2014 11:52 Опасный Джек Скачать торрент  


Опасный Джек / Ужас в больнице / Hazard Jack


Год выпуска: 2014
Страна:США
Жанр:ужасы
Продолжительность: 01:20:14
Перевод:Любительский (одноголосый) [Xixidok]
Режиссер:Дэвид Уорт
В ролях:

Аманда Мэддокс (Bridget), Элисон Лани (Stella), Кевин Джеймс Спорман (Earl), Маколи Грэй (Dylan), Jason O'neil Hudson (La Danian), Айми Белло (Lana), Jeremy Ebenstein (Mendel), Шон Харт (Security Dispatcher), Джош Жак (Randall), Мэнди Лэйн (Barbie), Zachary Meyer (Kyle), Джо Оррач (Construction Boss)
  • Описание:
    Несколько студентов колледжа собираются вместе на территории заброшенной больницы, чтобы в выходные дни развлечься пейнтболом и выпивкой. Они не знают, что больница стала убежищем для ветерана войны, страдающего посттравматическим стрессовым расстройством, и действующего под влиянием своих наваждений. И вечер для студентов перестает быть томным...


    Качество:HDRip
    Формат:AVI
    Видео кодек: XviD
    Аудио кодек:AC3
    Видео: XviD, 720x400 (16:9), 1979 kbps, 23,976 fps, 0,287 bpp
    Аудио №1: AC3 / 2.0 / 44 kHz / 192 kbps / RUS
    Аудио №2: AC3 / 2.0 / 48 kHz / 256 kbps / ENG

    Код:

    General
    Complete name                            : D:\Торенты\Hazard.Jack.2014.L1.HDRip.1400MB.avi
    Format                                   : AVI
    Format/Info                              : Audio Video Interleave
    File size                                : 1.37 GiB
    Duration                                 : 1h 20mn
    Overall bit rate                         : 2 442 Kbps
    Writing application                      : VirtualDubMod 1.5.10.3 | www.virtualdub-fr.org || (build 2550/release)
    Writing library                          : VirtualDubMod build 2550/release

    Video
    ID                                       : 0
    Format                                   : MPEG-4 Visual
    Format profile                           : Advanced Simple@L5
    Format settings, BVOP                    : 1
    Format settings, QPel                    : No
    Format settings, GMC                     : No warppoints
    Format settings, Matrix                  : Custom
    Codec ID                                 : XVID
    Codec ID/Hint                            : XviD
    Duration                                 : 1h 20mn
    Bit rate                                 : 1 980 Kbps
    Width                                    : 720 pixels
    Height                                   : 400 pixels
    Display aspect ratio                     : 16:9
    Frame rate                               : 23.976 fps
    Color space                              : YUV
    Chroma subsampling                       : 4:2:0
    Bit depth                                : 8 bits
    Scan type                                : Progressive
    Compression mode                         : Lossy
    Bits/(Pixel*Frame)                       : 0.287
    Stream size                              : 1.11 GiB (81%)
    Writing library                          : XviD 73

    Audio #1
    ID                                       : 1
    Format                                   : AC-3
    Format/Info                              : Audio Coding 3
    Mode extension                           : CM (complete main)
    Codec ID                                 : 2000
    Duration                                 : 1h 20mn
    Bit rate mode                            : Constant
    Bit rate                                 : 192 Kbps
    Channel(s)                               : 2 channels
    Channel positions                        : Front: L R
    Sampling rate                            : 44.1 KHz
    Bit depth                                : 16 bits
    Compression mode                         : Lossy
    Delay relative to video                  : 12ms
    Stream size                              : 110 MiB (8%)
    Alignment                                : Split accross interleaves
    Interleave, duration                     : 42 ms (1.00 video frame)
    Interleave, preload duration             : 500 ms

    Audio #2
    ID                                       : 2
    Format                                   : AC-3
    Format/Info                              : Audio Coding 3
    Mode extension                           : CM (complete main)
    Codec ID                                 : 2000
    Duration                                 : 1h 20mn
    Bit rate mode                            : Constant
    Bit rate                                 : 256 Kbps
    Channel(s)                               : 2 channels
    Channel positions                        : Front: L R
    Sampling rate                            : 48.0 KHz
    Bit depth                                : 16 bits
    Compression mode                         : Lossy
    Delay relative to video                  : 20ms
    Stream size                              : 147 MiB (10%)
    Alignment                                : Split accross interleaves
    Interleave, duration                     : 42 ms (1.00 video frame)
    Interleave, preload duration             : 500 ms


    Скриншоты:



    © Оформление by Ravenpb.wtf



  • Скачать Опасный Джек через торрент http://pic.kartinco.top/images/6/ordi9.jpg Скачать фильм Опасный Джек через торрент бесплантно в хорошем качестве Описание:Несколько студентов колледжа собираются вместе на территории заброшенной больницы, чтобы в выходные дни развлечься пейнтболом и ... 10 10 8
    Торрент: Зарегистрирован [2014-09-24 11:52] · скачан: 210 раз
    Статус: T временная
    Размер: 1.37 GB
    Как cкачать? Как скачать Опасный Джек через торрент | qTorrent

    28-11-2019 20:33  

    Отключить всю рекламу на сайте

    24-09-2014 14:09 Опасный Джек Скачать торрент  

    вся суть фильма в описании xDDDDpb.wtf



      Дорогой пользователь! Огромная просьба, поблагодарите релизера, оцените раздачу и оставьте свои комментарий, если Вы скачали Опасный Джек через торрент бесплатно! Внесите свою лепту в развитие PiratBit!
      Комментировать посты могут только пользователи прошедшие не сложную регистрацию
      Показать сообщения:    

      Опасный Джек через торрент
      Скачать бесплатно Опасный Джек
      Опасный Джек скачать торрент
      Опасный Джек смотреть онлайн
      Cкачать фильм Опасный Джек бесплатно
      Опасный Джек скачать торрент в хорошем качестве
      Опасный Джек смотреть онлайн бесплатно в хорошем качестве


      Вы не можете начинать темы
      Вы не можете отвечать на сообщения
      Вы не можете редактировать свои сообщения
      Вы не можете удалять свои сообщения
      Вы не можете голосовать в опросах
      Вы не можете прикреплять файлы к сообщениям
      Вы можете скачивать файлы