Ссылка на приватное зеркало нашего сайта всего за 1$. Внимание количество ограничено!!!

2 сезон

iTunes

1 сезон

1

iTunes

iTunes

iTunes

1 сезон

RePack

30

ИГРА 18+

pack

ВАЖНО

!!Акция!!

Alien_RageХит недели

RePack

MK11
pack

Забери бонус

RePack

jed

!!Акция!!

Alien_Rage

RePack

fifa19

RePack

Assassins Creed: Odyssey

RePack

NEED FOR SPEED™ PAYBACK

4 сезон

9 сезон

Бесстыжие 9 сезон

Все сериалы

все сериалы на PB.wtf

RePack

FAR CRY 5
  

Возврат / Reclaim (Алан Уайт) [2014, триллер, BDRip, Любительский (одноголосый) [qwerty] pb.wtf

Возврат через торрент pb.wtf

Размер: 1.37 GB | Добавлен: 6 лет назад | Торрент скачан:263 раза
Скачать  

24-09-2014 11:59 Возврат Скачать торрент  

Возврат / Reclaim
«Reclaim What's Yours»

Год выпуска: 2014
Страна: США, Китай, Малайзия
Жанр:триллер
Продолжительность:01:36:02
Перевод:Любительский (одноголосый) [qwerty]
Режиссер:Алан Уайт

  • В ролях:

    Джон Кьюсак (Benjamin), Райан Филипп (Steven), Рашель Лефевр (Shannon), Джеки Уивер (Reigert), Луис Гусман (Detective), Бриана Рой (Nina), Яндрес Бургос (Salo), Лиз Вероника Фу (Paola), Алекс Синтрон (Hotel Manager), Милли Руперто (Female Sergeant), Оскар Х. Герерро (Taxi Driver), Рима Самрат (Interpreter)

  • Описание:
    Американская пара становится жертвой подпольной аферы во время своего путешествия за границу. И теперь им придется рискнуть своей жизнью ради спасения собственной дочери.

  • Мировая премьера:19 сентября 2014

    Качество: BDRip
    Формат:MKV
    Видео кодек: XviD
    Аудио кодек:AC3
    Видео: XviD, 720x384 (1.860), 1559 kbps, 23,976 fps, 0,235 bpp
    Аудио: русский / AC3 / 5.1 / 48 kHz / 448 kbps / 16 bit ||


    Код:

    General
    Unique ID                                : 211784281942073527554234605355769960864 (0x9F542B45D49B7F82B2BDF6425FDA99A0)
    Complete name                            : D:\Торенты\Reclaim.2014.mkv
    Format                                   : Matroska
    Format version                           : Version 4 / Version 2
    File size                                : 1.37 GiB
    Duration                                 : 1h 36mn
    Overall bit rate                         : 2 049 Kbps
    Encoded date                             : UTC 2014-09-24 02:47:51
    Writing application                      : mkvmerge v6.8.0 ('Theme for Great Cities') 32bit built on Mar  2 2014 21:27:07
    Writing library                          : libebml v1.3.0 + libmatroska v1.4.1

    Video
    ID                                       : 1
    Format                                   : MPEG-4 Visual
    Format profile                           : Simple@L5
    Format settings, BVOP                    : No
    Format settings, QPel                    : No
    Format settings, GMC                     : No warppoints
    Format settings, Matrix                  : Default (H.263)
    Codec ID                                 : XVID
    Codec ID/Hint                            : XviD
    Duration                                 : 1h 36mn
    Bit rate                                 : 1 560 Kbps
    Width                                    : 720 pixels
    Height                                   : 384 pixels
    Display aspect ratio                     : 1.860
    Frame rate                               : 23.976 fps
    Color space                              : YUV
    Chroma subsampling                       : 4:2:0
    Bit depth                                : 8 bits
    Scan type                                : Progressive
    Compression mode                         : Lossy
    Bits/(Pixel*Frame)                       : 0.235
    Stream size                              : 1.05 GiB (76%)
    Writing library                          : Lavc56.1.100
    Default                                  : Yes
    Forced                                   : No

    Audio
    ID                                       : 2
    Format                                   : AC-3
    Format/Info                              : Audio Coding 3
    Mode extension                           : CM (complete main)
    Codec ID                                 : A_AC3
    Duration                                 : 1h 36mn
    Bit rate mode                            : Constant
    Bit rate                                 : 448 Kbps
    Channel(s)                               : 6 channels
    Channel positions                        : Front: L C R, Side: L R, LFE
    Sampling rate                            : 48.0 KHz
    Bit depth                                : 16 bits
    Compression mode                         : Lossy
    Stream size                              : 308 MiB (22%)
    Title                                    : Русская дорожка_Qwerty
    Language                                 : Russian
    Default                                  : Yes
    Forced                                   : No

    Скриншоты:



    © Оформление by Ravenpb.wtf



  • Скачать Возврат через торрент http://pic.kartinco.top/images/6/stazu.jpg Скачать фильм Возврат через торрент бесплантно в хорошем качестве Описание:Американская пара становится жертвой подпольной аферы во время своего путешествия за границу. И теперь им придется рискнуть своей ... 9.7 10 9
    Торрент: Зарегистрирован [2014-09-24 11:59] · скачан: 263 раз
    Статус: T временная
    Размер: 1.37 GB
    Как cкачать? Как скачать Возврат через торрент | qTorrent

    % Раздел Тема Автор DL S | L
    T Фильмы [HD 720p, 1080p] (Звук Cam, VO, DVO) [ 9.42 GB ] Возврат / Reclaim [2014 BDRip 1080p Любительский [ColdFilm] Ворон Скачать
    1 | 0
    T Фильмы (WEB-DL 720p, 1080p) [ 3.97 GB ] Возврат / Reclaim [2014 WEB-DL 720p Любительский [ColdFilm] Ворон Скачать
    1 | 0
    T Фильмы 2014 (Звук TS, Cam, VO, DVO) [ 1.37 GB ] Возврат / Reclaim [2014 WEB-DLRip Любительский [ColdFilm] Ворон Скачать
    1 | 0

    28-11-2019 20:33  

    Отключить всю рекламу на сайте

      Дорогой пользователь! Огромная просьба, поблагодарите релизера, оцените раздачу и оставьте свои комментарий, если Вы скачали Возврат через торрент бесплатно! Внесите свою лепту в развитие PiratBit!
      Комментировать посты могут только пользователи прошедшие не сложную регистрацию
      Показать сообщения:    

      Возврат через торрент
      Скачать бесплатно Возврат
      Возврат скачать торрент
      Возврат смотреть онлайн
      Cкачать фильм Возврат бесплатно
      Возврат скачать торрент в хорошем качестве
      Возврат смотреть онлайн бесплатно в хорошем качестве


      Вы не можете начинать темы
      Вы не можете отвечать на сообщения
      Вы не можете редактировать свои сообщения
      Вы не можете удалять свои сообщения
      Вы не можете голосовать в опросах
      Вы не можете прикреплять файлы к сообщениям
      Вы можете скачивать файлы