Доктор Стрэндж

Лицензия

Добыча

Дубляж

Уэнсдэй

1 сезон

Тор

Дубляж

В эфире

Дубляж

Там, где раки поют

MVO

Властелин колец

1 сезон

Deluxe

pack

Рекомендуем

30

Пиратка

ВАЖНО

ВАЖНО

Ghostwire

Пиратка

jed

RePack

nioh2

RePack

RDR2

RePack

NEED FOR SPEED™ PAYBACK

RePack

скачать торрент

Кинопоиск HD

Острые козырьки 6 сезон

6 сезон

FAR CRY 6

RePack

скачать торрент

Лицензия

скачать торрент

MVO

1

1 сезон

скачать торрент

1 сезон

скачать торрент

Лицензия

  

Разрушитель / Demolition Man (Марко Брамбилла) [1993г., фантастика, боевик, триллер, криминал, BDRip 720p] Дубляж, MVO, AVO

Разрушитель через торрент pb.wtf

Размер: 7.06 GB | Добавлен: 8 лет 2 мес. назад | Торрент скачан:106 раз
Смотреть онлайн | Скачать   

24-09-2014 12:49 Разрушитель Скачать торрент  

Разрушитель / Demolition Man
Год выпуска: 1993
Страна: США
Жанр: фантастика, боевик, триллер, криминал
Продолжительность: 01:55:02
Перевод: дублированный, профессиональный многоголосый, авторский
Субтитры: русские, английские (для слабослышащих) (все отдельно)

Режиссёр: Марко Брамбилла

В ролях: Сильвестр Сталлоне, Уэсли Снайпс, Сандра Баллок, Найджел Хоторн, Бенджамин Брэтт, Боб Гантон, Гленн Шэдикс, Дэнис Лири, Гранд Л. Буш, Пэт Скиппер, Стив Кэхэн, Пол Болен, Марк Колсон, Андре Грегори, Джон Инос III, Трой Эванс, Дон Чарльз МакГоверн, Билл Коббс, Патриция Райв, Аннелиза Скотт, Дин Минерд, Кристофер Логан, Пол Перри, Сьюзэн Лентини, Кэйси Уоллес, Трент Уолкер, Крис Дюран, Бретт А. Джонс, Дэн Кортезе, Лара Харрис, Сэм Нехира, Клод Оаттс, Алекс Чэпман, Брэнди Лэдфорд, Розмари Лагунас, Кен Болдуин, Джек Блэк, Майкл Бюис, Карлтон Уилборн, Чарльз Гласс, Бен Юранд, Билли Д. Лукас, Рино Майклс, Джесси Вентура

Описание: В 2032 году в крио-тюрьме после 35-летней заморозки пробуждается один из самых опасных преступников Саймон Феникс и решает взять приступом спокойный, свободный от всякого насилия Лос-Анджелес. Неспособные справиться с жестокими повадками 1990-х годов, свойственными Фениксу, официальные власти ищут полицейского тех лет, который смог бы одержать верх над преступником 90-х. Для этого они размораживают сержанта Джона Спартана, несправедливо осуждённого на срок в крио-тюрьме за его последнюю схватку с Фениксом.



Качество: BDRip 720p Сравнение с исходником
Формат: MKV
Видео кодек: H.264
Аудио кодек: AC3,DTS
Видео: 1280х534, 4661 kbps, 23.976 кадра/сек
Аудио 1: русский, AC3, 640 kbps, 6 ch, 48 kHz [дублированный, Blu-ray CEE]
Аудио 2: русский, AC3, 192 kbps, 2 ch, 48 kHz [профессиональный многоголосый, OPT]
Аудио 3: русский, AC3, 192 kbps, 2 ch, 48 kHz [авторский, Леонид Володарский]
Аудио 4: русский, AC3, 448 kbps, 6 ch, 48 kHz [авторский, Андрей Гаврилов]

Отдельные файлы
Аудио: русский, AC3, 192 kbps, 2 ch, 48 kHz [дублированный, Варус видео]
Аудио: русский, AC3, 192 kbps, 2 ch, 48 kHz [Профессиональный многоголосый, PTP]
Аудио: русский, DTS, 1509 kbps, 6 ch, 48 kHz [авторский, Андрей Гаврилов]
Аудио: английский, AC3, 448 kbps, 6 ch, 48 kHz [оригинал]

Имеются неименованные главы/чаптеры.

Автор рипа msltel
Премия канала «MTV», 1994 год
Номинации (1):
Лучший злодей (Уэсли Снайпс)

Золотая малина, 1994 год
Номинации (1):
Худшая женская роль второго плана (Сандра Буллок)

Сатурн, 1994 год
Номинации (3):
Лучший научно-фантастический фильм
Лучшие костюмы
Лучшие спецэффекты
frame I:1551 Avg QP:16.43 size: 82498
frame P:36793 Avg QP:17.68 size: 44882
frame B:127160 Avg QP:19.72 size: 18462

Общее
Полное имя : D:\Video\Razrushitel.1993.BDRip.720p\Razrushitel.1993.AVO.rus.А.Гаврилов.dts
Формат : DTS
Формат/Информация : Digital Theater Systems
Размер файла : 1,21 Гбайт
Продолжительность : 1 ч. 55 м.
Режим общего битрейта : Постоянный
Общий поток : 1509 Кбит/сек

Аудио
Формат : DTS
Формат/Информация : Digital Theater Systems
Режим : 16
Параметр Endianness формата : Big
Продолжительность : 1 ч. 55 м.
Вид битрейта : Постоянный
Битрейт : 1509 Кбит/сек
Каналы : 6 каналов
Расположение каналов : Front: L C R, Side: L R, LFE
Частота : 48,0 КГц
Битовая глубина : 24 бит
Метод сжатия : С потерями
Размер потока : 1,21 Гбайт (100%)

Общее
Уникальный идентификатор : 191192505446887088608700373785718859276 (0x8FD6564EB1602466969E9DEEAF44A60C)
Полное имя : D:\Video\Razrushitel.1993.BDRip.720p\Razrushitel.1993.BDRip.720p.mkv
Формат : Matroska
Версия формата : Version 4 / Version 2
Размер файла : 5,03 Гбайт
Продолжительность : 1 ч. 55 м.
Общий поток : 6257 Кбит/сек
Дата кодирования : UTC 2014-09-24 09:32:00
Программа кодирования : mkvmerge v6.9.1 ('Blue Panther') 64bit built on Apr 18 2014 18:23:38
Библиотека кодирования : libebml v1.3.0 + libmatroska v1.4.1

Видео
Идентификатор : 1
Формат : AVC
Формат/Информация : Advanced Video Codec
Профиль формата : [email protected]
Параметр CABAC формата : Да
Параметр ReFrames формата : 9 кадров
Идентификатор кодека : V_MPEG4/ISO/AVC
Продолжительность : 1 ч. 55 м.
Битрейт : 4661 Кбит/сек
Ширина : 1280 пикселей
Высота : 534 пикселя
Соотношение сторон : 2,40:1
Режим частоты кадров : Постоянный
Частота кадров : 23,976 кадра/сек
Цветовое пространство : YUV
Субдискретизация насыщенности : 4:2:0
Битовая глубина : 8 бит
Тип развёртки : Прогрессивная
Бит/(Пиксели*Кадры) : 0.284
Размер потока : 3,75 Гбайт (74%)
Заголовок : BDRip -- STarankov
Библиотека кодирования : x264 core 142 r2431 ac76440
Настройки программы : cabac=1 / ref=9 / deblock=1:-1:-1 / analyse=0x3:0x113 / me=umh / subme=10 / psy=1 / psy_rd=1.00:0.15 / mixed_ref=1 / me_range=32 / chroma_me=1 / trellis=2 / 8x8dct=1 / cqm=0 / deadzone=21,11 / fast_pskip=0 / chroma_qp_offset=-3 / threads=6 / lookahead_threads=1 / sliced_threads=0 / nr=0 / decimate=1 / interlaced=0 / bluray_compat=0 / constrained_intra=0 / bframes=8 / b_pyramid=2 / b_adapt=2 / b_bias=0 / direct=1 / weightb=1 / open_gop=0 / weightp=2 / keyint=230 / keyint_min=23 / scenecut=40 / intra_refresh=0 / rc_lookahead=40 / rc=crf / mbtree=0 / crf=18.0 / qcomp=0.60 / qpmin=0 / qpmax=69 / qpstep=4 / vbv_maxrate=40000 / vbv_bufsize=50000 / crf_max=0.0 / nal_hrd=none / filler=0 / ip_ratio=1.40 / pb_ratio=1.30 / aq=1:1.00
Язык : English
Default : Да
Forced : Нет

Аудио #1
Идентификатор : 2
Формат : AC-3
Формат/Информация : Audio Coding 3
Расширение режима : CM (complete main)
Параметр Endianness формата : Big
Идентификатор кодека : A_AC3
Продолжительность : 1 ч. 55 м.
Вид битрейта : Постоянный
Битрейт : 640 Кбит/сек
Каналы : 6 каналов
Расположение каналов : Front: L C R, Side: L R, LFE
Частота : 48,0 КГц
Битовая глубина : 16 бит
Метод сжатия : С потерями
Размер потока : 527 Мбайт (10%)
Заголовок : Дубляж (Blu-ray CEE)
Язык : Russian
Default : Да
Forced : Нет

Аудио #2
Идентификатор : 3
Формат : AC-3
Формат/Информация : Audio Coding 3
Расширение режима : CM (complete main)
Параметр Endianness формата : Big
Идентификатор кодека : A_AC3
Продолжительность : 1 ч. 55 м.
Вид битрейта : Постоянный
Битрейт : 192 Кбит/сек
Каналы : 2 канала
Расположение каналов : Front: L R
Частота : 48,0 КГц
Битовая глубина : 16 бит
Метод сжатия : С потерями
Размер потока : 158 Мбайт (3%)
Заголовок : MVO (OPT)
Язык : Russian
Default : Нет
Forced : Нет

Аудио #3
Идентификатор : 4
Формат : AC-3
Формат/Информация : Audio Coding 3
Расширение режима : CM (complete main)
Параметр Endianness формата : Big
Идентификатор кодека : A_AC3
Продолжительность : 1 ч. 55 м.
Вид битрейта : Постоянный
Битрейт : 192 Кбит/сек
Каналы : 2 канала
Расположение каналов : Front: L R
Частота : 44,1 КГц
Битовая глубина : 16 бит
Метод сжатия : С потерями
Размер потока : 158 Мбайт (3%)
Заголовок : AVO (Леонид Володарский)
Язык : Russian
Default : Нет
Forced : Нет

Аудио #4
Идентификатор : 5
Формат : AC-3
Формат/Информация : Audio Coding 3
Расширение режима : CM (complete main)
Параметр Endianness формата : Big
Идентификатор кодека : A_AC3
Продолжительность : 1 ч. 55 м.
Вид битрейта : Постоянный
Битрейт : 448 Кбит/сек
Каналы : 6 каналов
Расположение каналов : Front: L C R, Side: L R, LFE
Частота : 48,0 КГц
Битовая глубина : 16 бит
Метод сжатия : С потерями
Размер потока : 369 Мбайт (7%)
Заголовок : AVO (Андрей Гаврилов)
Язык : Russian
Default : Нет
Forced : Нет

Меню
00:00:00.000 : :Chapter 01
00:02:50.211 : :Chapter 02
00:07:10.847 : :Chapter 03
00:11:30.522 : :Chapter 04
00:16:46.213 : :Chapter 05
00:22:59.878 : :Chapter 06
00:28:39.467 : :Chapter 07
00:31:03.987 : :Chapter 08
00:32:43.878 : :Chapter 09
00:37:45.554 : :Chapter 10
00:41:26.775 : :Chapter 11
00:47:32.015 : :Chapter 12
00:51:13.320 : :Chapter 13
00:54:35.313 : :Chapter 14
00:57:18.017 : :Chapter 15
01:00:17.196 : :Chapter 16
01:03:16.542 : :Chapter 17
01:07:41.932 : :Chapter 18
01:14:57.326 : :Chapter 19
01:17:39.446 : :Chapter 20
01:19:54.331 : :Chapter 21
01:24:09.252 : :Chapter 22
01:27:03.885 : :Chapter 23
01:28:04.904 : :Chapter 24
01:30:25.962 : :Chapter 25
01:34:50.309 : :Chapter 26
01:37:10.823 : :Chapter 27
01:41:16.904 : :Chapter 28
01:45:52.179 : :Chapter 29
01:48:42.641 : :Chapter 30
01:55:02.645 : :Chapter 31

Общее
Полное имя : D:\Video\Razrushitel.1993.BDRip.720p\Razrushitel.1993.Commentary.eng.ac3
Формат : AC-3
Формат/Информация : Audio Coding 3
Размер файла : 158 Мбайт
Продолжительность : 1 ч. 55 м.
Режим общего битрейта : Постоянный
Общий поток : 192 Кбит/сек

Аудио
Формат : AC-3
Формат/Информация : Audio Coding 3
Профиль формата : Dolby Digital
Расширение режима : CM (complete main)
Параметр Endianness формата : Big
Продолжительность : 1 ч. 55 м.
Вид битрейта : Постоянный
Битрейт : 192 Кбит/сек
Каналы : 2 канала
Расположение каналов : Front: L R
Частота : 48,0 КГц
Битовая глубина : 16 бит
Метод сжатия : С потерями
Размер потока : 158 Мбайт (100%)

Общее
Полное имя : D:\Video\Razrushitel.1993.BDRip.720p\Razrushitel.1993.Дубляж.rus.Варус видео.ac3
Формат : AC-3
Формат/Информация : Audio Coding 3
Размер файла : 158 Мбайт
Продолжительность : 1 ч. 54 м.
Режим общего битрейта : Постоянный
Общий поток : 192 Кбит/сек

Аудио
Формат : AC-3
Формат/Информация : Audio Coding 3
Расширение режима : CM (complete main)
Параметр Endianness формата : Big
Продолжительность : 1 ч. 54 м.
Вид битрейта : Постоянный
Битрейт : 192 Кбит/сек
Каналы : 2 канала
Расположение каналов : Front: L R
Частота : 48,0 КГц
Битовая глубина : 16 бит
Метод сжатия : С потерями
Размер потока : 158 Мбайт (100%)

Общее
Полное имя : D:\Video\Razrushitel.1993.BDRip.720p\Razrushitel.1993.eng.SDH.srt
Формат : SubRip
Размер файла : 117 Кбайт

Текст
Формат : SubRip
Метод сжатия : Без потерь

Общее
Полное имя : D:\Video\Razrushitel.1993.BDRip.720p\Razrushitel.1993.MVO.rus.PTP.ac3
Формат : AC-3
Формат/Информация : Audio Coding 3
Размер файла : 158 Мбайт
Продолжительность : 1 ч. 55 м.
Режим общего битрейта : Постоянный
Общий поток : 192 Кбит/сек

Аудио
Формат : AC-3
Формат/Информация : Audio Coding 3
Расширение режима : CM (complete main)
Параметр Endianness формата : Big
Продолжительность : 1 ч. 55 м.
Вид битрейта : Постоянный
Битрейт : 192 Кбит/сек
Каналы : 2 канала
Расположение каналов : Front: L R
Частота : 48,0 КГц
Битовая глубина : 16 бит
Метод сжатия : С потерями
Размер потока : 158 Мбайт (100%)

Общее
Полное имя : D:\Video\Razrushitel.1993.BDRip.720p\Razrushitel.1993.Original.eng.ac3
Формат : AC-3
Формат/Информация : Audio Coding 3
Размер файла : 369 Мбайт
Продолжительность : 1 ч. 55 м.
Режим общего битрейта : Постоянный
Общий поток : 448 Кбит/сек

Аудио
Формат : AC-3
Формат/Информация : Audio Coding 3
Расширение режима : CM (complete main)
Параметр Endianness формата : Big
Продолжительность : 1 ч. 55 м.
Вид битрейта : Постоянный
Битрейт : 448 Кбит/сек
Каналы : 6 каналов
Расположение каналов : Front: L C R, Side: L R, LFE
Частота : 48,0 КГц
Битовая глубина : 16 бит
Метод сжатия : С потерями
Размер потока : 369 Мбайт (100%)

Общее
Полное имя : D:\Video\Razrushitel.1993.BDRip.720p\Razrushitel.1993.rus.srt
Формат : SubRip
Размер файла : 98,3 Кбайт

Текст
Формат : SubRip
Метод сжатия : Без потерь



Скачать Разрушитель через торрент http://i66.fastpic.ru/big/2014/0924/d1/61cb1559ea517d71167aaf9c0bc682d1.jpg Скачать, смотреть онлайн Разрушитель бесплантно в хорошем качестве Описание: В 2032 году в крио-тюрьме после 35-летней заморозки пробуждается один из самых опасных преступников Саймон Феникс и решает взять ... 10 10 17
Info! Золотая раздача, скачанное не засчитывается.
Торрент: Зарегистрирован [2014-09-24 12:49] · скачан: 106 раз
Статус: √ проверено
Размер: 7.06 GB
Как cкачать? Как скачать Разрушитель через торрент | UTorrent




Последний раз редактировалось: msltel (2014-09-25 17:01), всего редактировалось 2 раз(а)

28-11-2019 20:33  


Отключить вcю реклaмy на сайте, в т.ч. и в плеере онлайн просмотра!

24-09-2014 19:12 Разрушитель Скачать торрент  

фильм обалденный, в коллекцию однозначно))



    Дорогой пользователь! Огромная просьба, поблагодарите релизера, оцените раздачу и оставьте свои комментарий, если Вы скачали Разрушитель через торрент бесплатно!!
    Комментировать посты могут только пользователи прошедшие не сложную регистрацию
    Показать сообщения:    


    Разрушитель через торрент
    Скачать бесплатно Разрушитель
    Разрушитель скачать торрент
    Разрушитель смотреть онлайн
    Cкачать фильм Разрушитель бесплатно
    Разрушитель скачать торрент в хорошем качестве
    Разрушитель смотреть онлайн бесплатно в хорошем качестве
    Вы не можете начинать темы
    Вы не можете отвечать на сообщения
    Вы не можете редактировать свои сообщения
    Вы не можете удалять свои сообщения
    Вы не можете голосовать в опросах
    Вы не можете прикреплять файлы к сообщениям
    Вы можете скачивать файлы
    Разрушитель / Demolition Man [1993г., фантастика, боевик, триллер, криминал, BDRip 720p] Дубляж, MVO, AVO смотреть онлайн, скачать торрент picoco.icu