Ссылка на приватное зеркало нашего сайта всего за 1$. Внимание количество ограничено!!!

2 сезон

iTunes

1 сезон

1

iTunes

iTunes

iTunes

1 сезон

RePack

30

ИГРА 18+

pack

ВАЖНО

!!Акция!!

Alien_RageХит недели

RePack

MK11
pack

Забери бонус

RePack

jed

!!Акция!!

Alien_Rage

RePack

fifa19

RePack

Assassins Creed: Odyssey

RePack

NEED FOR SPEED™ PAYBACK

4 сезон

9 сезон

Бесстыжие 9 сезон

Все сериалы

все сериалы на PB.wtf

RePack

FAR CRY 5
  

Евгенист / The Eugenist / Dark Medicine(Тарик Нашид) [2013, ужасы, фантастика, WEBRip, Любительский (двухголосый)[den904, DeadSno] pb.wtf

Евгенист через торрент pb.wtf

Размер: 737 MB | Добавлен: 6 лет назад | Торрент скачан:17 раз
Скачать  

24-09-2014 16:44 Евгенист Скачать торрент  

Евгенист / The Eugenist / Dark Medicine


Год выпуска: 2013
Страна: США
Жанр:ужасы, фантастика
Продолжительность:01:11:52
Перевод:Любительский (двухголосый)[den904, DeadSno]
Режиссер:Тарик Нашид

  • В ролях:

    Ola Akinroluyo (Noel), Byron Baudo (Mr. Elliott), Джошуа Беднарски (David), Эмили Брукс (Melissa), Кори Браун (Mack), Шон Кэллоуэй (Mutant), Дрю Чейз (Todd), JinYoung Choi (Jennifer), Расс Кингстон (Mr. Patterson), Эбби Кочман (Little Girl), Kelci C. Magel (Mutant), Роберт Максвелл (Mr. Watson)

  • Описание:
    Группа первокурсников, возвращаясь с вечеринки поздно ночью, решают зайти в заброшенную школу, в которой когда-то разразилась эпидемия неизвестного заболевания...


    Качество: WEBRip
    Формат:AVI
    Видео кодек: XviD
    Аудио кодек:AC3
    Видео: XviD, 640x272 (2.35:1), 1232 kbps, 23,976 fps, 0,295 bpp
    Аудио: AC3 / 2.0 / 48 kHz / 192 kbps / 16 bit


    Код:

    General
    Complete name                            : D:\Торенты\The.Eugenis.2013webrip.740mb.avi
    Format                                   : AVI
    Format/Info                              : Audio Video Interleave
    File size                                : 737 MiB
    Duration                                 : 1h 11mn
    Overall bit rate                         : 1 434 Kbps
    Writing application                      : VirtualDubModRus 1.5.10.2 (build 2542/release)
    Writing library                          : VirtualDubMod build 2542/release

    Video
    ID                                       : 0
    Format                                   : MPEG-4 Visual
    Format profile                           : Advanced Simple@L5
    Format settings, BVOP                    : 2
    Format settings, QPel                    : No
    Format settings, GMC                     : No warppoints
    Format settings, Matrix                  : Default (H.263)
    Codec ID                                 : XVID
    Codec ID/Hint                            : XviD
    Duration                                 : 1h 11mn
    Bit rate                                 : 1 232 Kbps
    Width                                    : 640 pixels
    Height                                   : 272 pixels
    Display aspect ratio                     : 2.35:1
    Frame rate                               : 23.976 fps
    Color space                              : YUV
    Chroma subsampling                       : 4:2:0
    Bit depth                                : 8 bits
    Scan type                                : Progressive
    Compression mode                         : Lossy
    Bits/(Pixel*Frame)                       : 0.295
    Stream size                              : 633 MiB (86%)
    Writing library                          : XviD 1.2.1 (UTC 2008-12-04)

    Audio
    ID                                       : 1
    Format                                   : AC-3
    Format/Info                              : Audio Coding 3
    Mode extension                           : CM (complete main)
    Codec ID                                 : 2000
    Duration                                 : 1h 11mn
    Bit rate mode                            : Constant
    Bit rate                                 : 192 Kbps
    Channel(s)                               : 2 channels
    Channel positions                        : Front: L R
    Sampling rate                            : 48.0 KHz
    Bit depth                                : 16 bits
    Compression mode                         : Lossy
    Stream size                              : 98.7 MiB (13%)
    Alignment                                : Split accross interleaves
    Interleave, duration                     : 42 ms (1.00 video frame)
    Interleave, preload duration             : 500 ms

    Скриншоты:



    © Оформление by Ravenpb.wtf



  • Скачать Евгенист через торрент http://pic.kartinco.top/images/6/stazu.jpg Скачать фильм Евгенист через торрент бесплантно в хорошем качестве Описание:Группа первокурсников, возвращаясь с вечеринки поздно ночью, решают зайти в заброшенную школу, в которой когда-то разразилась ... 10 10 6
    Торрент: Зарегистрирован [2014-09-24 16:44] · скачан: 17 раз
    Статус: T временная
    Размер: 737 MB
    Как cкачать? Как скачать Евгенист через торрент | qTorrent

    % Раздел Тема Автор DL S | L
    T Фильмы 2013 (Звук TS, Cam, VO, DVO) [ 1.28 GB ] Евгенист / The Eugenist / Dark Medicine [2013 DVDRip Любительский [den904 DeadSno] Ворон Скачать
    1 | 0

    28-11-2019 20:33  

    Отключить всю рекламу на сайте

    25-09-2014 01:47 Евгенист Скачать торрент  

    Спасибоpb.wtf



      Дорогой пользователь! Огромная просьба, поблагодарите релизера, оцените раздачу и оставьте свои комментарий, если Вы скачали Евгенист через торрент бесплатно! Внесите свою лепту в развитие PiratBit!
      Комментировать посты могут только пользователи прошедшие не сложную регистрацию
      Показать сообщения:    

      Евгенист через торрент
      Скачать бесплатно Евгенист
      Евгенист скачать торрент
      Евгенист смотреть онлайн
      Cкачать фильм Евгенист бесплатно
      Евгенист скачать торрент в хорошем качестве
      Евгенист смотреть онлайн бесплатно в хорошем качестве


      Вы не можете начинать темы
      Вы не можете отвечать на сообщения
      Вы не можете редактировать свои сообщения
      Вы не можете удалять свои сообщения
      Вы не можете голосовать в опросах
      Вы не можете прикреплять файлы к сообщениям
      Вы можете скачивать файлы