Ссылка на приватное зеркало нашего сайта всего за 1$. Внимание количество ограничено!!!

2 сезон

iTunes

1 сезон

1

iTunes

iTunes

iTunes

1 сезон

RePack

30

ИГРА 18+

pack

ВАЖНО

!!Акция!!

Alien_RageХит недели

RePack

MK11
pack

Забери бонус

RePack

jed

!!Акция!!

Alien_Rage

RePack

fifa19

RePack

Assassins Creed: Odyssey

RePack

NEED FOR SPEED™ PAYBACK

4 сезон

9 сезон

Бесстыжие 9 сезон

Все сериалы

все сериалы на PB.wtf

RePack

FAR CRY 5
  

Евгенист / The Eugenist / Dark Medicine (Тарик Нашид) [2013, ужасы, фантастика, DVDRip, Любительский (двухголосый)[den904, DeadSno] pb.wtf

Евгенист через торрент pb.wtf

Размер: 1.28 GB | Добавлен: 6 лет 1 мес. назад | Торрент скачан:99 раз
Скачать  

24-09-2014 16:49 Евгенист Скачать торрент  

Евгенист / The Eugenist / Dark Medicine


Год выпуска: 2013
Страна: США
Жанр:ужасы, фантастика
Продолжительность:01:11:52
Перевод:Любительский (двухголосый)[den904, DeadSno]
Режиссер:Тарик Нашид

  • В ролях:

    Ola Akinroluyo (Noel), Byron Baudo (Mr. Elliott), Джошуа Беднарски (David), Эмили Брукс (Melissa), Кори Браун (Mack), Шон Кэллоуэй (Mutant), Дрю Чейз (Todd), JinYoung Choi (Jennifer), Расс Кингстон (Mr. Patterson), Эбби Кочман (Little Girl), Kelci C. Magel (Mutant), Роберт Максвелл (Mr. Watson)

  • Описание:
    Группа первокурсников, возвращаясь с вечеринки поздно ночью, решают зайти в заброшенную школу, в которой когда-то разразилась эпидемия неизвестного заболевания...


    Качество: DVDRip
    Формат:AVI
    Видео кодек: XviD
    Аудио кодек:AC3
    Видео: XviD, 720x304 (2.35:1), 2102 kbps, 23,976 fps, 0,401 bpp
    Аудио №1: AC3 / 2.0 / 48 kHz / 256 kbps / Russian
    Аудио №2: AC3 / 2.0 / 48 kHz / 192 kbps / English


    Код:

    General
    Complete name                            : D:\Торенты\The Eugenis (2013) DVDRip.avi
    Format                                   : AVI
    Format/Info                              : Audio Video Interleave
    Format profile                           : OpenDML
    Format settings                          : rec
    File size                                : 1.28 GiB
    Duration                                 : 1h 11mn
    Overall bit rate                         : 2 558 Kbps
    Writing application                      : AVI-Mux GUI 1.17.8.3, Feb 16 201019:42:50

    Video
    ID                                       : 0
    Format                                   : MPEG-4 Visual
    Format profile                           : Advanced Simple@L5
    Format settings, BVOP                    : No
    Format settings, QPel                    : No
    Format settings, GMC                     : No warppoints
    Format settings, Matrix                  : Default (H.263)
    Codec ID                                 : XVID
    Codec ID/Hint                            : XviD
    Duration                                 : 1h 11mn
    Bit rate                                 : 2 102 Kbps
    Width                                    : 720 pixels
    Height                                   : 304 pixels
    Display aspect ratio                     : 2.35:1
    Frame rate                               : 23.976 fps
    Color space                              : YUV
    Chroma subsampling                       : 4:2:0
    Bit depth                                : 8 bits
    Scan type                                : Progressive
    Compression mode                         : Lossy
    Bits/(Pixel*Frame)                       : 0.401
    Stream size                              : 1.06 GiB (82%)
    Writing library                          : XviD 62

    Audio #1
    ID                                       : 1
    Format                                   : AC-3
    Format/Info                              : Audio Coding 3
    Mode extension                           : CM (complete main)
    Codec ID                                 : 2000
    Duration                                 : 1h 11mn
    Bit rate mode                            : Constant
    Bit rate                                 : 256 Kbps
    Channel(s)                               : 2 channels
    Channel positions                        : Front: L R
    Sampling rate                            : 48.0 KHz
    Bit depth                                : 16 bits
    Compression mode                         : Lossy
    Stream size                              : 132 MiB (10%)
    Alignment                                : Aligned on interleaves
    Interleave, duration                     : 64 ms (1.53 video frames)
    Interleave, preload duration             : 192 ms
    Title                                    : Rus

    Audio #2
    ID                                       : 2
    Format                                   : AC-3
    Format/Info                              : Audio Coding 3
    Mode extension                           : CM (complete main)
    Codec ID                                 : 2000
    Duration                                 : 1h 11mn
    Bit rate mode                            : Constant
    Bit rate                                 : 192 Kbps
    Channel(s)                               : 2 channels
    Channel positions                        : Front: L R
    Sampling rate                            : 48.0 KHz
    Bit depth                                : 16 bits
    Compression mode                         : Lossy
    Stream size                              : 98.7 MiB (8%)
    Alignment                                : Aligned on interleaves
    Interleave, duration                     : 64 ms (1.53 video frames)
    Interleave, preload duration             : 192 ms
    Title                                    : Eng

    Скриншоты:



    © Оформление by Ravenpb.wtf



  • Скачать Евгенист через торрент http://pic.kartinco.top/images/6/stazu.jpg Скачать фильм Евгенист через торрент бесплантно в хорошем качестве Описание:Группа первокурсников, возвращаясь с вечеринки поздно ночью, решают зайти в заброшенную школу, в которой когда-то разразилась ... 10 10 4
    Торрент: Зарегистрирован [2014-09-24 16:49] · скачан: 99 раз
    Статус: T временная
    Размер: 1.28 GB
    Как cкачать? Как скачать Евгенист через торрент | qTorrent

    % Раздел Тема Автор DL S | L
    T Фильмы 2013 (Звук TS, Cam, VO, DVO) [ 737 MB ] Евгенист / The Eugenist / Dark Medicine [2013 WEBRip Любительский [den904 DeadSno] Ворон Скачать
    1 | 0

    28-11-2019 20:33  

    Отключить всю рекламу на сайте

      Дорогой пользователь! Огромная просьба, поблагодарите релизера, оцените раздачу и оставьте свои комментарий, если Вы скачали Евгенист через торрент бесплатно! Внесите свою лепту в развитие PiratBit!
      Комментировать посты могут только пользователи прошедшие не сложную регистрацию
      Показать сообщения:    

      Евгенист через торрент
      Скачать бесплатно Евгенист
      Евгенист скачать торрент
      Евгенист смотреть онлайн
      Cкачать фильм Евгенист бесплатно
      Евгенист скачать торрент в хорошем качестве
      Евгенист смотреть онлайн бесплатно в хорошем качестве


      Вы не можете начинать темы
      Вы не можете отвечать на сообщения
      Вы не можете редактировать свои сообщения
      Вы не можете удалять свои сообщения
      Вы не можете голосовать в опросах
      Вы не можете прикреплять файлы к сообщениям
      Вы можете скачивать файлы