1 сезон

1 сезон

iTunes

1

КиноПоиск HD

Кинопоиск HD

iTunes

13

1 сезон

RePack

30

Новинка

ВАЖНО

ИГРА 18+

pack

RePack

MK11
pack

Легкие деньги

RePack

jed

RePack

fifa19

RePack

RDR2

RePack

NEED FOR SPEED™ PAYBACK

4 сезон

9 сезон

Бесстыжие 9 сезон

Все сериалы

все сериалы на PB.wtf

RePack

FAR CRY 5
  
Magnet ссылка

Время волков / Le temps du loup (Михаэль Ханеке / Michael Haneke) [2002, Франция, Австрия, Германия, драма, DVDRip, Профессиональный многоголосый] pb.wtf

Время волков через торрент pb.wtf

Размер: 1.37 GB | Добавлен: 6 лет 6 мес. назад | Торрент скачан:34 раза
Скачать  

24-09-2014 21:36 Время волков Скачать торрент  

Время волков / Le temps du loup

Год выпуска: 2002
Страна: Франция, Австрия, Германия
Жанр: драма
Продолжительность: 01:48:21
Перевод: Профессиональный многоголосый
Субтитры: Отсутствует
Режиссер: Михаэль Ханеке / Michael Haneke
В ролях:


Изабель Юппер (Anne Laurent), Беатрис Даль (Lise Brandt), Патрис Шеро (Thomas Brandt), Рона Хартнер (Arina), Морис Бенишу (M. Azoulay), Оливье Гурме (Koslowski), Брижит Роюан (Béa), Люка Биком (Ben), Хаким Талеб (Young runaway), Анаис Демустье (Eva), Серж Рябукин (The leader), Марилин Ивен (Mme Azoulay)

Описание:
Когда Анна и ее семья приезжают в свой загородный дом, они обнаруживают, что там поселились чужаки. Муж получает пулю в лоб, а Анна с двумя детьми скитается по окрестностям, пока не набредает на заброшенную железнодорожную станцию.
Здесь нашли прибежище множество беспомощных людей, таких же беженцев из ниоткуда в никуда, которые вынуждены сражаться с миром и друг с другом за кусок хлеба и глоток воды. Они охвачены отчаянием и алчностью, но время от времени все еще способны проявлять какие-то человеческие чувства. Цивилизации больше не существует, но люди продолжают надеяться на то, что кто-то окажет им помощь.

Рейтинг:

MPAA: R - Лицам до 17 лет обязательно присутствие взрослого
Качество: DVDRip
Формат: AVI
Видео кодек:XviD
Аудио кодек:AC3
Видео: XviD, 704x288 (2.40:1), 1572 kbps, 25 fps, 0,310 bpp
Аудио: AC3 / 5.1 / 48 kHz / 224 kbps / 16 bit

General
Complete name : D:\Users\_KaisiK_\uTorrent\КИНО\Vremya volkov 2003 DVDRip.avi
Format : AVI
Format/Info : Audio Video Interleave
File size : 1.37 GiB
Duration : 1h 48mn
Overall bit rate : 1 806 Kbps
Writing application : VirtualDubMod 1.5.10.2 (build 2540/release)
Writing library : VirtualDubMod build 2540/release

Video
ID : 0
Format : MPEG-4 Visual
Format profile : Advanced Simple@L5
Format settings, BVOP : 2
Format settings, QPel : No
Format settings, GMC : No warppoints
Format settings, Matrix : Default (MPEG)
Muxing mode : Packed bitstream
Codec ID : XVID
Codec ID/Hint : XviD
Duration : 1h 48mn
Bit rate : 1 573 Kbps
Width : 704 pixels
Height : 288 pixels
Display aspect ratio : 2.40:1
Frame rate : 25.000 fps
Color space : YUV
Chroma subsampling : 4:2:0
Bit depth : 8 bits
Scan type : Progressive
Compression mode : Lossy
Bits/(Pixel*Frame) : 0.310
Stream size : 1.19 GiB (87%)
Writing library : XviD 1.2.1 (UTC 2008-12-04)

Audio
ID : 1
Format : AC-3
Format/Info : Audio Coding 3
Mode extension : CM (complete main)
Codec ID : 2000
Duration : 1h 48mn
Bit rate mode : Constant
Bit rate : 224 Kbps
Channel(s) : 6 channels
Channel positions : Front: L C R, Side: L R, LFE
Sampling rate : 48.0 KHz
Bit depth : 16 bits
Compression mode : Lossy
Stream size : 173 MiB (12%)
Alignment : Split accross interleaves
Interleave, duration : 40 ms (1.00 video frame)
Interleave, preload duration : 500 ms

[/code]
pb.wtf



Скачать Время волков через торрент http://i5.imageban.ru/out/2014/09/25/4db7f67928ee77346da4179f26407d15.jpg Скачать фильм Время волков через торрент бесплантно в хорошем качестве Описание: Когда Анна и ее семья приезжают в свой загородный дом, они обнаруживают, что там поселились чужаки. Муж получает пулю в лоб, а ... 10 10 2
Торрент: Зарегистрирован [2014-09-24 21:36] · скачан: 34 раз
Статус: √ проверено
Размер: 1.37 GB
Как cкачать? Как скачать Время волков через торрент | UTorrent

28-11-2019 20:33  

Отключить всю рекламу на сайте

    Дорогой пользователь! Огромная просьба, поблагодарите релизера, оцените раздачу и оставьте свои комментарий, если Вы скачали Время волков через торрент бесплатно! Внесите свою лепту в развитие PiratBit!
    Комментировать посты могут только пользователи прошедшие не сложную регистрацию
    Показать сообщения:    

    Время волков через торрент
    Скачать бесплатно Время волков
    Время волков скачать торрент
    Время волков смотреть онлайн
    Cкачать фильм Время волков бесплатно
    Время волков скачать торрент в хорошем качестве
    Время волков смотреть онлайн бесплатно в хорошем качестве


    Вы не можете начинать темы
    Вы не можете отвечать на сообщения
    Вы не можете редактировать свои сообщения
    Вы не можете удалять свои сообщения
    Вы не можете голосовать в опросах
    Вы не можете прикреплять файлы к сообщениям
    Вы можете скачивать файлы