Ссылка на приватное зеркало нашего сайта всего за 1$. Внимание количество ограничено!!!

2 сезон

iTunes

1 сезон

1

iTunes

iTunes

iTunes

1 сезон

RePack

30

ИГРА 18+

pack

ВАЖНО

!!Акция!!

Alien_RageХит недели

RePack

MK11
pack

Забери бонус

RePack

jed

!!Акция!!

Alien_Rage

RePack

fifa19

RePack

Assassins Creed: Odyssey

RePack

NEED FOR SPEED™ PAYBACK

4 сезон

9 сезон

Бесстыжие 9 сезон

Все сериалы

все сериалы на PB.wtf

RePack

FAR CRY 5
  

Судная ночь 2 / The Purge: Anarchy (Джеймс ДеМонако /James DeMonaco) [2014г., триллер, криминал, боевик, BDRip 720p / Лицензия pb.wtf

Судная ночь 2 через торрент pb.wtf

Размер: 4.62 GB | Добавлен: 5 лет 6 мес. назад | Торрент скачан:528 раз
Скачать  

24-09-2014 22:14 Судная ночь 2 Скачать торрент  

Судная ночь 2 / The Purge: Anarchy
Год выпуска: 2014
Страна: США, Франция
Жанр: триллер, криминал, боевик
Продолжительность: 02:11:09

  • Перевод: Дубляж [Лицензия / iTunes] ;
  • Субтитры: нет
  • Оригинальная аудиодорожка: нет

Режиссер: Джеймс ДеМонако /James DeMonaco
В ролях: Фрэнк Грилло, Кармен Эджого, Зак Гилфорд, Киле Санчес, Майкл К. Уильямс, Зои Борд, Жустина Мачадо, Джон Бизли, Джек Конли, Ноэль Гульеми
Описание: Добро пожаловать в идеальный мир будущего, мир без преступности и войн. И только один раз в году роскошная спокойная жизнь сменяется анархией. Этой ночью дозволено все: во тьме улиц одни жаждут мести, другие ищут развлечений, остальные пытаются дожить до рассвета...

    Тип релиза: BDRip 720p
  • Контейнер: MKV
  • Видео кодек: AVC | Аудио кодек: AC-3
  • Видео: 1280x534 , 23.976 fps, 4510 Kbps
  • Аудио 1: Russian: 48 kHz, AC3, 6 ch, ~384.00 kbps avg |Дубляж, iTunes|
  • Аудио 1: английский (DTS, 6 ch,1536 Кбит/с) 48 kHz
  • Чаптеры: 20шт.

Код:

Общее
Уникальный идентификатор                 : 187221699632484588861728761649238258519 (0x8CD996772F818EFBB8452021139A3357)
Полное имя                               : D:\Торенты\The.Purge.Anarchy.2014.BluRay.720p.x264.Rus.Eng.Subs-CHD.mkv
Формат                                   : Matroska
Версия формата                           : Version 4 / Version 2
Размер файла                             : 4,62 Гбайт
Продолжительность                        : 1 ч. 43 м.
Общий поток                              : 6391 Кбит/сек
Дата кодирования                         : UTC 2014-10-11 13:23:30
Программа кодирования                    : mkvmerge v6.9.1 ('Blue Panther') 64bit built on Apr 18 2014 18:23:38
Библиотека кодирования                   : libebml v1.3.0 + libmatroska v1.4.1

Видео
Идентификатор                            : 1
Формат                                   : AVC
Формат/Информация                        : Advanced Video Codec
Профиль формата                          : High@L4.1
Параметр CABAC формата                   : Да
Параметр ReFrames формата                : 10 кадров
Идентификатор кодека                     : V_MPEG4/ISO/AVC
Продолжительность                        : 1 ч. 43 м.
Битрейт                                  : 4510 Кбит/сек
Ширина                                   : 1280 пикселей
Высота                                   : 534 пикселя
Соотношение сторон                       : 2,40:1
Режим частоты кадров                     : Постоянный
Частота кадров                           : 23,976 кадра/сек
Цветовое пространство                    : YUV
Субдискретизация насыщенности            : 4:2:0
Битовая глубина                          : 8 бит
Тип развёртки                            : Прогрессивная
Бит/(Пиксели*Кадры)                      : 0.275
Размер потока                            : 3,16 Гбайт (68%)
Библиотека кодирования                   : x264 core 142 r2431 ac76440
Настройки программы                      : cabac=1 / ref=10 / deblock=1:-3:-3 / analyse=0x3:0x113 / me=umh / subme=10 / psy=1 / psy_rd=1.00:0.05 / mixed_ref=1 / me_range=32 / chroma_me=1 / trellis=2 / 8x8dct=1 / cqm=0 / deadzone=21,11 / fast_pskip=0 / chroma_qp_offset=-2 / threads=18 / lookahead_threads=1 / sliced_threads=0 / nr=0 / decimate=1 / interlaced=0 / bluray_compat=0 / constrained_intra=0 / bframes=4 / b_pyramid=2 / b_adapt=2 / b_bias=0 / direct=3 / weightb=1 / open_gop=0 / weightp=2 / keyint=250 / keyint_min=23 / scenecut=40 / intra_refresh=0 / rc=2pass / mbtree=0 / bitrate=4510 / ratetol=1.0 / qcomp=0.70 / qpmin=0 / qpmax=69 / qpstep=4 / cplxblur=20.0 / qblur=0.5 / ip_ratio=1.40 / pb_ratio=1.30 / aq=2:1.00
Язык                                     : English
Default                                  : Да
Forced                                   : Нет

Аудио #1
Идентификатор                            : 2
Формат                                   : AC-3
Формат/Информация                        : Audio Coding 3
Расширение режима                        : CM (complete main)
Параметр Endianness формата              : Big
Идентификатор кодека                     : A_AC3
Продолжительность                        : 1 ч. 43 м.
Вид битрейта                             : Постоянный
Битрейт                                  : 384 Кбит/сек
Каналы                                   : 6 каналов
Расположение каналов                     : Front: L C R, Side: L R, LFE
Частота                                  : 48,0 КГц
Битовая глубина                          : 16 бит
Метод сжатия                             : С потерями
Размер потока                            : 284 Мбайт (6%)
Заголовок                                : iTunes
Язык                                     : Russian
Default                                  : Да
Forced                                   : Нет

Аудио #2
Идентификатор                            : 3
Формат                                   : DTS
Формат/Информация                        : Digital Theater Systems
Режим                                    : 16
Параметр Endianness формата              : Big
Идентификатор кодека                     : A_DTS
Продолжительность                        : 1 ч. 43 м.
Вид битрейта                             : Постоянный
Битрейт                                  : 1509 Кбит/сек
Каналы                                   : 6 каналов
Расположение каналов                     : Front: L C R, Side: L R, LFE
Частота                                  : 48,0 КГц
Битовая глубина                          : 24 бит
Метод сжатия                             : С потерями
Размер потока                            : 1,09 Гбайт (24%)
Заголовок                                : dts-core 1509k eng
Язык                                     : English
Default                                  : Нет
Forced                                   : Нет

Текст #1
Идентификатор                            : 4
Формат                                   : UTF-8
Идентификатор кодека                     : S_TEXT/UTF8
Идентификатор кодека/Информация          : UTF-8 Plain Text
Заголовок                                : Full
Язык                                     : Romanian
Default                                  : Нет
Forced                                   : Нет

Текст #2
Идентификатор                            : 5
Формат                                   : UTF-8
Идентификатор кодека                     : S_TEXT/UTF8
Идентификатор кодека/Информация          : UTF-8 Plain Text
Заголовок                                : Full
Язык                                     : English
Default                                  : Да
Forced                                   : Нет

Текст #3
Идентификатор                            : 6
Формат                                   : UTF-8
Идентификатор кодека                     : S_TEXT/UTF8
Идентификатор кодека/Информация          : UTF-8 Plain Text
Заголовок                                : SDH
Язык                                     : English
Default                                  : Нет
Forced                                   : Нет

pb.wtf



Скачать Судная ночь 2 через торрент http://i63.fastpic.ru/big/2014/0925/b8/4b39e67f6c669a26ede36ff07d67f1b8.jpg Скачать фильм Судная ночь 2 через торрент бесплантно в хорошем качестве Описание: Добро пожаловать в идеальный мир будущего, мир без преступности и войн. И только один раз в году роскошная спокойная жизнь ... 9.6 10 42
Info! Золотая раздача, скачанное не засчитывается.
Торрент: Зарегистрирован [2015-03-28 07:51] · скачан: 528 раз
Статус: √ проверено
Размер: 4.62 GB
Как cкачать? Как скачать Судная ночь 2 через торрент | qTorrent

28-11-2019 20:33  

Отключить всю рекламу на сайте

11-10-2014 22:39 Судная ночь 2 Скачать торрент  

Отличный фильм!pb.wtf



28-12-2014 18:51 Судная ночь 2 Скачать торрент  

спасибо посмотримpb.wtf



28-03-2015 11:40 Судная ночь 2 Скачать торрент  

Да фильм нормальный можно посмотреть когда нечем заняться. pb.wtf



03-08-2016 10:53 Судная ночь 2 Скачать торрент  

Жесткий фильм, но отличный.pb.wtf



    Дорогой пользователь! Огромная просьба, поблагодарите релизера, оцените раздачу и оставьте свои комментарий, если Вы скачали Судная ночь 2 через торрент бесплатно! Внесите свою лепту в развитие PiratBit!
    Комментировать посты могут только пользователи прошедшие не сложную регистрацию
    Показать сообщения:    

    Судная ночь 2 через торрент
    Скачать бесплатно Судная ночь 2
    Судная ночь 2 скачать торрент
    Судная ночь 2 смотреть онлайн
    Cкачать фильм Судная ночь 2 бесплатно
    Судная ночь 2 скачать торрент в хорошем качестве
    Судная ночь 2 смотреть онлайн бесплатно в хорошем качестве


    Вы не можете начинать темы
    Вы не можете отвечать на сообщения
    Вы не можете редактировать свои сообщения
    Вы не можете удалять свои сообщения
    Вы не можете голосовать в опросах
    Вы не можете прикреплять файлы к сообщениям
    Вы можете скачивать файлы