MEGA SALE -50% FORZA HORIZON 4 ULTIMATE+ВСЕ DLC+ОНЛАЙН всего за 599р. 299 руб. (супер цена). Внимание количество ограничено!!!

iTunes

1+1

iTunes

мы

iTunes

1

iTunes

Чернобыль

iTunes

Ральф против интернета

Лицензия

ПШазам

Лицензия

Игра престолов

Лицензия

30
pack

ВАЖНО

!!Акция!!

Alien_RageХит недели

RePack

Resident Evil 21

ИГРА 18+

pack

RePack

Metro:Exodus

!!Акция!!

Alien_Rage

RePack

fifa19

RePack

Assassins Creed: Odyssey

RePack

NEED FOR SPEED™ PAYBACK

3 сезон

9 сезон

Бесстыжие 9 сезон

Все сериалы

все сериалы на PB.wtf

RePack

FAR CRY 5
Ребята, катастрофически не хватает 7730р. для оплаты серверов за АВГУСТ (всвязи с блокировками трафик упал в 3 раза), 1-2р., выручайте.
  

Волчонок / Teen Wolf (Род Дэниэл) [1985г., фэнтези, мелодрама, комедия, BDRip] MVO, AVO pb.wtf

Волчонок через торрент pb.wtf

Размер: 1.61 GB | Добавлен: 4 года 11 мес. назад | Торрент скачан:26 раз
Скачать  

25-09-2014 08:50 Волчонок Скачать торрент  

Волчонок / Teen Wolf
Год выпуска:
Страна: США
Жанр: фэнтези, мелодрама, комедия
Продолжительность: 01:32:20
Перевод: профессиональный многоголосый, авторский
Субтитры: русские, английские (все отдельно)

Режиссёр: Род Дэниэл

В ролях: Майкл Дж. Фокс, Джеймс Хэмптон, Сьюзэн Урситти, Джерри Ливайн, Мэтт Адлер, Лори Гриффин, Джим МакКрелл, Марк Арнольд

Описание: Знаете легенды об оборотнях? Страх и ужас! Конечно, Скотти испугался, увидев однажды в зеркале вместо своей симпатичной рожицы нечто лохматое и волосатое. Но папа успокоил парня - это наследственное: к тому же кусать никого не обязательно. Вскоре выяснилось, что быть волчонком очень удобно и принимать человеческий облик теперь вроде уже ни к чему...



Качество: BDRip Сравнение с исходником
Формат: AVI
Видео кодек: XviD
Аудио кодек: AC3
Видео: 720x384, 1901 kbps, 23.976 кадра/сек
Аудио 1: русский, AC3, 192 kbps, 2 ch, 48 kHz [профессиональный многоголосый]
Аудио 2: русский, AC3, 192 kbps, 2 ch, 48 kHz [авторский, Сергей Визгунов]

Отдельный файл
Аудио: английский, AC3, 448 kbps, 6 ch, 48 kHz [оригинал]

Автор рипа msltel
Общее
Полное имя : D:\Video\Volchonok.1985.BDRip\Volchonok.1985.BDRip.avi
Формат : AVI
Формат/Информация : Audio Video Interleave
Размер файла : 1,48 Гбайт
Продолжительность : 1 ч. 32 м.
Общий поток : 2299 Кбит/сек
Программа кодирования : VirtualDubMod 1.5.10.2 (build 2540/release)
Библиотека кодирования : VirtualDubMod build 2540/release

Видео
Идентификатор : 0
Формат : MPEG-4 Visual
Профиль формата : Advanced Simple@L5
Параметр BVOP формата : 1
Параметр QPel формата : Нет
Параметр GMC формата : Без точки перехода
Параметр матрицы формата : Default (H.263)
Режим смешивания : Сжатый битовый поток
Идентификатор кодека : XVID
Идентификатор кодека/Подсказка : XviD
Продолжительность : 1 ч. 32 м.
Битрейт : 1901 Кбит/сек
Ширина : 720 пикселей
Высота : 384 пикселя
Соотношение сторон : 1,85:1
Частота кадров : 23,976 кадра/сек
Цветовое пространство : YUV
Субдискретизация насыщенности : 4:2:0
Битовая глубина : 8 бит
Тип развёртки : Прогрессивная
Метод сжатия : С потерями
Бит/(Пиксели*Кадры) : 0.287
Размер потока : 1,23 Гбайт (83%)
Библиотека кодирования : XviD 1.2.1 (UTC 2008-12-04)

Аудио #1
Идентификатор : 1
Формат : AC-3
Формат/Информация : Audio Coding 3
Расширение режима : CM (complete main)
Параметр Endianness формата : Big
Идентификатор кодека : 2000
Продолжительность : 1 ч. 32 м.
Вид битрейта : Постоянный
Битрейт : 192 Кбит/сек
Каналы : 2 канала
Расположение каналов : Front: L R
Частота : 48,0 КГц
Битовая глубина : 16 бит
Метод сжатия : С потерями
Размер потока : 127 Мбайт (8%)
Выравнивание : Разделение по промежуткам
Продолжительность промежутка : 42 мс. (1,00 видеокадр)
Время предзагрузки промежутка : 500 мс.

Аудио #2
Идентификатор : 2
Формат : AC-3
Формат/Информация : Audio Coding 3
Расширение режима : CM (complete main)
Параметр Endianness формата : Big
Идентификатор кодека : 2000
Продолжительность : 1 ч. 32 м.
Вид битрейта : Постоянный
Битрейт : 192 Кбит/сек
Каналы : 2 канала
Расположение каналов : Front: L R
Частота : 48,0 КГц
Битовая глубина : 16 бит
Метод сжатия : С потерями
Размер потока : 127 Мбайт (8%)
Выравнивание : Разделение по промежуткам
Продолжительность промежутка : 42 мс. (1,00 видеокадр)
Время предзагрузки промежутка : 500 мс.

Общее
Полное имя : D:\Video\Volchonok.1985.BDRip\Volchonok.1985.eng.srt
Формат : SubRip
Размер файла : 92,2 Кбайт

Текст
Формат : SubRip
Метод сжатия : Без потерь

Общее
Полное имя : D:\Video\Volchonok.1985.BDRip\Volchonok.1985.Original.eng.ac3
Формат : AC-3
Формат/Информация : Audio Coding 3
Размер файла : 127 Мбайт
Продолжительность : 1 ч. 32 м.
Режим общего битрейта : Постоянный
Общий поток : 192 Кбит/сек

Аудио
Формат : AC-3
Формат/Информация : Audio Coding 3
Расширение режима : CM (complete main)
Параметр Endianness формата : Big
Продолжительность : 1 ч. 32 м.
Вид битрейта : Постоянный
Битрейт : 192 Кбит/сек
Каналы : 2 канала
Расположение каналов : Front: L R
Частота : 48,0 КГц
Битовая глубина : 16 бит
Метод сжатия : С потерями
Размер потока : 127 Мбайт (100%)

Общее
Полное имя : D:\Video\Volchonok.1985.BDRip\Volchonok.1985.rus.srt
Размер файла : 60,2 Кбайт
pb.wtf



Скачать Волчонок через торрент http://i65.fastpic.ru/big/2014/0925/c2/0352ad354b0fac7064716c0f18f534c2.jpg Скачать фильм Волчонок через торрент бесплантно в хорошем качестве Описание: Знаете легенды об оборотнях? Страх и ужас! Конечно, Скотти испугался, увидев однажды в зеркале вместо своей симпатичной рожицы ... 10 10 2
Торрент: Зарегистрирован [2014-09-25 08:50] · скачан: 26 раз
Статус: √ проверено
Размер: 1.61 GB
Как cкачать? Как скачать Волчонок через торрент | qTorrent

% Раздел Тема Автор DL S | L
Фильмы [HD 720p, 1080p] (Хороший звук DUB, MVO) [ 11.01 GB ] Волчонок / Teen Wolf [1985 BDRip 1080p] MVO AVO msltel Скачать
1 | 0


>> Регистрируемся здесь <<






Отзывы и комментарии о схеме читаем и пишем здесь: ---> Отзывы и комментарии о схеме

Новые благодарочки в телеграм довольных пользователей:
скриншот   скриншот   скриншот   скриншот   скриншот
    Дорогой пользователь! Огромная просьба, поблагодарите релизера, оцените раздачу и оставьте свои комментарий, если Вы скачали Волчонок через торрент бесплатно! Внесите свою лепту в развитие PiratBit!
    Комментировать посты могут только пользователи прошедшие не сложную регистрацию
    Показать сообщения:    

    Волчонок через торрент
    Скачать бесплатно Волчонок
    Волчонок скачать торрент
    Волчонок смотреть онлайн
    Cкачать фильм Волчонок бесплатно
    Волчонок скачать торрент в хорошем качестве
    Волчонок смотреть онлайн бесплатно в хорошем качестве


    Вы не можете начинать темы
    Вы не можете отвечать на сообщения
    Вы не можете редактировать свои сообщения
    Вы не можете удалять свои сообщения
    Вы не можете голосовать в опросах
    Вы не можете прикреплять файлы к сообщениям
    Вы можете скачивать файлы