2 сезон

iTunes

MVO

1

2 сезон

iTunes

iTunes

1 сезон

RePack

30

Новинка

ВАЖНО

ИГРА 18+

pack

RePack

MK11
pack

Легкие деньги

RePack

jed

RePack

fifa19

RePack

RDR2

RePack

NEED FOR SPEED™ PAYBACK

4 сезон

9 сезон

Бесстыжие 9 сезон

Все сериалы

все сериалы на PB.wtf

RePack

FAR CRY 5

Anonymous, добрый вечер, мы не успеваем собрать деньги на оплату серверов за декабрь и январь, помогите нам пожалуйста в это трудное время. В качестве благодарности мы отключим Вам всю рекламу на сайте (укажите свой ник в строку Ваше имя)!

×
  
Magnet ссылка

НюАрт - Лучшее искусство Эротики / Nuart - The Best of Art Erotic [2014 г., Music clips, erotic, WEB-DLRip, Оригинал] pb.wtf

НюАрт - Лучшее искусство Эротики через торрент pb.wtf

Качают: 1 [ 0 KB/s ]
Размер: 4.06 GB | Добавлен: 6 лет 3 мес. назад | Торрент скачан:520 раз
Скачать  

25-09-2014 09:03 НюАрт - Лучшее искусство Эротики Скачать торрент  

НюАрт - Лучшее искусство Эротики / Nuart - The Best of Art Erotic
Год выпуска: 2014
Жанр: Music clips, erotic
Продолжительность: 02:07:12
Перевод: Оригинал

В ролях: Модели

Описание:
nuart.tv – это международный сайт и телеканал, посвященные женскому телу в аудиовизуальном искусстве....

Много ли на свете вещей прекраснее, чем красота женщины? В этих клипах - загадочная одухотворённость, манящая нежность, бодрящая весёлость, совершенство форм и неповторимость женского начала! Изящество и простота, ностальгичность и жизнерадостность, игривость и величие, молодость и зрелость, преданность и лукавость - клипы на любой вкус.

Приятного просмотра!
01. Anticipation (Anna)
02. Ask about your demons (Camilla)
03. Aurora (Anna)
04. Backstage (Juliana)
05. Baltic Beauty (Anna)
06. Caroline
07. Cat's Cheers (Noemi)
08. Chamaleon
09. Cold Impression (Iolanta)
10. Dream Island (Anastasia)
11. Errin
12. Head on evening (Olga)
13. I me mine (Zoe)
14. Jessica Peeters
15. Lost in Venice (Olga)
16. Master Class (Anna)
17. Master Class (Ekaterina)
18. Me Myself & I (Issizzu)
19. Nastya
20. Naturelle
21. Naughtiness
22. North Sea Dreaming (Nadya)
23. North Sea Dreaming Shooting (Nadya)
24. Old Camera (Kristina)
25. Photostyle (Olga)
26. Playfool (Lola)
27. Portside (Noemi)
28. Preview
29. Pureness (Natalia)
30. Slavic Lorelei (Caprice)
31. Star Dust (Daria)
32. Stiff Breeze (Iris)
33. Swinging (Alina)
34. The Roof (Noemi)
35. Trampoline Girl (Issizzu)
36. Try walking in my shoes (Marina)
37. Valkiria (Daria)
38. Vaunt
39. Winter Turquoise (Iolanta)
40. Yachtie (Marina)
Качество: WEB-DLRip
Формат: MKV
Видео кодек: MPEG2
Аудио кодек: MPEG Audio
Видео: MPEG Video, 4443 Кбит/с, 720x576 (16:9), 25,000 fps
Аудио#1: MPEG Audio (MP2), 48.0 KHz,192 Kbps, 2 ch
Релиз от: terras
скриншот   скриншот   скриншот   скриншот   скриншот   скриншот   скриншот  

Общее
Уникальный идентификатор : 181372369103814075743488216901632679179 (0x88730C345F7EC21E947C8EA805445D0B)
Полное имя : D:\Архив\Клипы\Nuart - The Best of Art Erotic (2014)\02. Ask about your demons (Camilla).mkv
Формат : Matroska
Версия формата : Version 4 / Version 2
Размер файла : 77,2 Мбайт
Продолжительность : 2 м. 16 с.
Режим общего битрейта : Переменный
Общий поток : 4729 Кбит/сек
Дата кодирования : UTC 2014-09-25 07:18:34
Программа кодирования : mkvmerge v7.2.0 ('On Every Street') 64bit built on Sep 13 2014 15:52:10
Библиотека кодирования : libebml v1.3.0 + libmatroska v1.4.1
DURATION : 00:02:16.920000000
NUMBER_OF_FRAMES : 5705
NUMBER_OF_BYTES : 3286080
_STATISTICS_WRITING_APP : mkvmerge v7.2.0 ('On Every Street') 64bit built on Sep 13 2014 15:52:10
_STATISTICS_WRITING_DATE_UTC : 2014-09-25 07:18:34
_STATISTICS_TAGS : BPS DURATION NUMBER_OF_FRAMES NUMBER_OF_BYTES

Видео
Идентификатор : 1
Формат : MPEG Video
Версия формата : Version 2
Профиль формата : Main@Main
Параметр BVOP формата : Нет
Параметр матрицы формата : Выборочная
Идентификатор кодека : V_MPEG2
Идентификатор кодека/Информация : MPEG 1 or 2 Video
Продолжительность : 2 м. 16 с.
Вид битрейта : Переменный
Битрейт : 4443 Кбит/сек
Максимальный битрейт : 15,0 Мбит/сек
Ширина : 720 пикселей
Высота : 576 пикселей
Соотношение сторон : 16:9
Режим частоты кадров : Постоянный
Частота кадров : 25,000 кадров/сек
Стандарт вещания : PAL
Цветовое пространство : YUV
Субдискретизация насыщенности : 4:2:0
Битовая глубина : 8 бит
Тип развёртки : Чересстрочная
Порядок развёртки : Верхнее поле первое
Метод сжатия : С потерями
Бит/(Пиксели*Кадры) : 0.429
Временной код первого кадра : 00:00:00:00
Оригинал временного кода : Group of pictures header
Размер потока : 72,5 Мбайт (94%)
Default : Да
Forced : Нет

Аудио
Идентификатор : 2
Формат : MPEG Audio
Версия формата : Version 1
Профиль формата : Layer 2
Идентификатор кодека : A_MPEG/L2
Идентификатор кодека/Подсказка : MP2
Продолжительность : 2 м. 16 с.
Вид битрейта : Постоянный
Битрейт : 192 Кбит/сек
Каналы : 2 канала
Частота : 48,0 КГц
Метод сжатия : С потерями
Задержка видео : 22 мс.
Размер потока : 3,13 Мбайт (4%)
Язык : Russian
Default : Да
Forced : Нет

pb.wtf



Скачать НюАрт - Лучшее искусство Эротики через торрент http://pic.kartinco.top/images/7/33ul4.jpg Скачать фильм НюАрт - Лучшее искусство Эротики через торрент бесплантно в хорошем качестве Описание: nuart.tv – это международный сайт и телеканал, посвященные женскому телу в аудиовизуальном искусстве....Много ли на свете вещей ... 9.8 10 18
Торрент: Зарегистрирован [2014-09-25 09:03] · скачан: 520 раз
Статус: √ проверено
Размер: 4.06 GB
Как cкачать? Как скачать НюАрт - Лучшее искусство Эротики через торрент | UTorrent

28-11-2019 20:33  

Отключить всю рекламу на сайте

22-10-2014 20:28 НюАрт - Лучшее искусство Эротики Скачать торрент  

Спасибо! Красиво.pb.wtf



    Дорогой пользователь! Огромная просьба, поблагодарите релизера, оцените раздачу и оставьте свои комментарий, если Вы скачали НюАрт - Лучшее искусство Эротики через торрент бесплатно! Внесите свою лепту в развитие PiratBit!
    Комментировать посты могут только пользователи прошедшие не сложную регистрацию
    Показать сообщения:    

    НюАрт - Лучшее искусство Эротики через торрент
    Скачать бесплатно НюАрт - Лучшее искусство Эротики
    НюАрт - Лучшее искусство Эротики скачать торрент
    НюАрт - Лучшее искусство Эротики смотреть онлайн
    Cкачать фильм НюАрт - Лучшее искусство Эротики бесплатно
    НюАрт - Лучшее искусство Эротики скачать торрент в хорошем качестве
    НюАрт - Лучшее искусство Эротики смотреть онлайн бесплатно в хорошем качестве


    Вы не можете начинать темы
    Вы не можете отвечать на сообщения
    Вы не можете редактировать свои сообщения
    Вы не можете удалять свои сообщения
    Вы не можете голосовать в опросах
    Вы не можете прикреплять файлы к сообщениям
    Вы можете скачивать файлы