Всегда рабочее зеркало без VPN и Proxy просто перед .vidak.icu напиши любое слово или цифру, Пример http://66tj.vidak.icu

MVO

2 сезон

1 сезон

1

1 сезон

iTunes

2 сезон

13

1 сезон

Deluxe

pack

Рекомендуем

Пиратка

30

ВАЖНО

RePack

MK11

RePack

jed

RePack

fifa19

RePack

RDR2

RePack

NEED FOR SPEED™ PAYBACK

Кинопоиск HD

6 сезон

 Острые козырьки 6 сезон

Все сериалы

все сериалы на PB.wtf

RePack

FAR CRY 5

Anonymous, нам критически не хватает 5601 руб. на оплату серверов и переферии за Апрель, помоги нам пожалуйста, вся надежда только на тебя. В благодарность мы отключим тебе всю рекламу на сайте!

×
  
Magnet ссылка

Большая афера / The Grand Seduction (Дон МакКеллар) [2013, комедия, драма, HDRip, Профессиональный многоголосый [Лицензия] pb.wtf

Большая афера через торрент pb.wtf

Размер: 1.46 GB | Добавлен: 7 лет 8 мес. назад | Торрент скачан:891 раз
Смотреть онлайн Большая афера | Скачать    Ребята, помогите собрать деньги на оплату серверов!!!

25-09-2014 13:33 Большая афера Скачать торрент  

Большая афера / The Grand Seduction
«Добро пожаловать в наш райский уголок! 120 отъявленных лжецов нуждаются в хорошем докторе»

Год выпуска: 2013
Страна: Канада
Жанр:комедия, драма
Продолжительность:01:53:08
Перевод:Профессиональный многоголосый [Лицензия]
Режиссер:Дон МакКеллар

  • В ролях:

    Брендан Глисон (Murray French), Тейлор Китч (Dr. Lewis), Лиэн Балабан (Kathleen), Гордон Пинсент (Simon), Анна Хопкинс (Helen, озвучка), Ронда Роджерс (Samantha), Джофф Адамс (Trip's Assistant #2), Джон Бартлетт (играет самого себя - Hockey Announcer), Карли Бун (Lucy Tilley), Марк Критч (Henry Tilley), Кэти Джонс, Питер Келеган (Tripp)

  • Описание:
    Добро пожаловать в рай, где исполняются все желания! Маленький живописный городок у моря. Население: 120 отъявленных лжецов. И им очень нужен хороший доктор.

  • Мировая премьера:8 сентября 2013

    Качество: HDRip
    Формат:AVI
    Видео кодек: XviD
    Аудио кодек:AC3
    Видео: XviD, 720x384 (1.875), 1390 kbps, 23,976 fps, 0,210 bpp
    Аудио: AC3 / 5.1 / 48 kHz / 448 kbps / 16 bit


    Код:

    General
    Complete name                            : D:\Торенты\B0lsha9.Afera.2013.P.HDRip.1400M.avi
    Format                                   : AVI
    Format/Info                              : Audio Video Interleave
    File size                                : 1.46 GiB
    Duration                                 : 1h 53mn
    Overall bit rate                         : 1 848 Kbps
    Writing application                      : VirtualDubMod 1.5.10.2 (build 2540/release)
    Writing library                          : VirtualDubMod build 2540/release

    Video
    ID                                       : 0
    Format                                   : MPEG-4 Visual
    Format profile                           : Advanced Simple@L5
    Format settings, BVOP                    : 1
    Format settings, QPel                    : No
    Format settings, GMC                     : No warppoints
    Format settings, Matrix                  : Custom
    Codec ID                                 : XVID
    Codec ID/Hint                            : XviD
    Duration                                 : 1h 53mn
    Bit rate                                 : 1 391 Kbps
    Width                                    : 720 pixels
    Height                                   : 384 pixels
    Display aspect ratio                     : 1.875
    Frame rate                               : 23.976 fps
    Color space                              : YUV
    Chroma subsampling                       : 4:2:0
    Bit depth                                : 8 bits
    Scan type                                : Progressive
    Compression mode                         : Lossy
    Bits/(Pixel*Frame)                       : 0.210
    Stream size                              : 1.10 GiB (75%)
    Writing library                          : XviD 1.2.1 (UTC 2008-12-04)

    Audio
    ID                                       : 1
    Format                                   : AC-3
    Format/Info                              : Audio Coding 3
    Mode extension                           : CM (complete main)
    Codec ID                                 : 2000
    Duration                                 : 1h 53mn
    Bit rate mode                            : Constant
    Bit rate                                 : 448 Kbps
    Channel(s)                               : 6 channels
    Channel positions                        : Front: L C R, Side: L R, LFE
    Sampling rate                            : 48.0 KHz
    Bit depth                                : 16 bits
    Compression mode                         : Lossy
    Stream size                              : 363 MiB (24%)
    Alignment                                : Split accross interleaves
    Interleave, duration                     : 42 ms (1.00 video frame)
    Interleave, preload duration             : 500 ms

    Скриншоты:



    © Оформление by Ravenpb.wtf



  • Скачать Большая афера через торрент https://pic1.kartinco.top/images/61/stazu.jpg Скачать, смотреть онлайн Большая афера бесплантно в хорошем качестве Описание:Добро пожаловать в рай, где исполняются все желания! Маленький живописный городок у моря. Население: 120 отъявленных лжецов. И им ... 9.7 10 23
    Торрент: Зарегистрирован [2014-09-25 13:33] · скачан: 891 раз
    Статус: √ проверено
    Размер: 1.46 GB
    Как cкачать? Как скачать Большая афера через торрент | UTorrent

    % Раздел Тема Автор DL S | L
    Фильмы с авторской озвучкой [ 1.46 GB ] Большая афера / The Grand Seduction [2013 BDRip] [AVO] killermax2013 Скачать
    1 | 0
    Фильмы [HD 720p, 1080p] (Хороший звук DUB, MVO) [ 4.44 GB ] Большая афера / The Grand Seduction [2013 BDRip 720p] DUBAVO _denis_100 Скачать
    1 | 0
    Фильмы 2013 [DVDrip, WEB-DLRip, HDrip] [ 2.18 GB ] Большая афера / The Grand Seduction [2013 BDRip-AVC] MVO [] potroks Скачать
    1 | 0
    Фильмы (Blu-ray, BD-Remux, HDDVD) [ 25.56 GB ] Большая афера / The Grand Seduction (2013 BDRemux 1080p / MVO лицензия] Ворон Скачать
    1 | 0
    Фильмы (DVD фильмы) [ 5.77 GB ] Большая афера / The Grand Seduction [2013 DVD9] R5 voovaz Скачать
    1 | 0
    Фильмы [HD 720p, 1080p] (Хороший звук DUB, MVO) [ 6.81 GB ] Большая афера / The Grand Seduction [2013 BDRip 1080p MVO [] от R.G. HD-Films Ворон Скачать
    1 | 0
    Фильмы 2013 [DVDrip, WEB-DLRip, HDrip] [ 2.18 GB ] Большая афера / The Grand Seduction [2013 HDRip многоголосый [] Ворон Скачать
    1 | 0

    28-11-2019 20:33  

    Отключить всю рекламу на сайте

      Дорогой пользователь! Огромная просьба, поблагодарите релизера, оцените раздачу и оставьте свои комментарий, если Вы скачали Большая афера через торрент бесплатно!
      Комментировать посты могут только пользователи прошедшие не сложную регистрацию
      Показать сообщения:    

      Большая афера через торрент
      Скачать бесплатно Большая афера
      Большая афера скачать торрент
      Большая афера смотреть онлайн
      Cкачать фильм Большая афера бесплатно
      Большая афера скачать торрент в хорошем качестве
      Большая афера смотреть онлайн бесплатно в хорошем качестве


      Вы не можете начинать темы
      Вы не можете отвечать на сообщения
      Вы не можете редактировать свои сообщения
      Вы не можете удалять свои сообщения
      Вы не можете голосовать в опросах
      Вы не можете прикреплять файлы к сообщениям
      Вы можете скачивать файлы