Всегда рабочее зеркало без VPN и Proxy просто перед .vidak.icu напиши любое слово или цифру, Пример http://z7wh.vidak.icu

iTunes

2 сезон

1 сезон

1

1 сезон

iTunes

2 сезон

13

1 сезон

Deluxe

pack

Рекомендуем

Пиратка

30

ВАЖНО

RePack

MK11

RePack

jed

RePack

fifa19

RePack

RDR2

RePack

NEED FOR SPEED™ PAYBACK

Кинопоиск HD

6 сезон

 Острые козырьки 6 сезон

Все сериалы

все сериалы на PB.wtf

RePack

FAR CRY 5

Anonymous, нам критически не хватает 5601 руб. на оплату серверов и переферии за Апрель, помоги нам пожалуйста, вся надежда только на тебя. В благодарность мы отключим тебе всю рекламу на сайте!

×
  
Magnet ссылка

Большая афера / The Grand Seduction (Дон МакКеллар) [2013, комедия, драма, BDRip 1080p, MVO [Лицензия] от R.G. HD-Films pb.wtf

Большая афера через торрент pb.wtf

Размер: 6.81 GB | Добавлен: 7 лет 8 мес. назад | Торрент скачан:212 раз
Смотреть онлайн Большая афера | Скачать    Ребята, помогите собрать деньги на оплату серверов!!!

25-09-2014 13:57 Большая афера Скачать торрент  

Большая афера / The Grand Seduction
«Добро пожаловать в наш райский уголок! 120 отъявленных лжецов нуждаются в хорошем докторе»

Год выпуска: 2013
Страна: Канада
Жанр:комедия, драма
Продолжительность:01:53:08
Перевод:Профессиональный многоголосый [Лицензия]
Режиссер:Дон МакКеллар

  • В ролях:

    Брендан Глисон (Murray French), Тейлор Китч (Dr. Lewis), Лиэн Балабан (Kathleen), Гордон Пинсент (Simon), Анна Хопкинс (Helen, озвучка), Ронда Роджерс (Samantha), Джофф Адамс (Trip's Assistant #2), Джон Бартлетт (играет самого себя - Hockey Announcer), Карли Бун (Lucy Tilley), Марк Критч (Henry Tilley), Кэти Джонс, Питер Келеган (Tripp)

  • Описание:
    Добро пожаловать в рай, где исполняются все желания! Маленький живописный городок у моря. Население: 120 отъявленных лжецов. И им очень нужен хороший доктор.

  • Мировая премьера:8 сентября 2013

    Качество: BDRip 1080p
    Формат:MKV
    Видео кодек: AVC
    Аудио кодек:AC3
    Видео: AVC, 1920x1040 (16:9), 8173 kbps, 23,976 fps, 0,171 bpp
    Аудио: русский / AC3 / 5.1 / 48 kHz / 448 kbps / 16 bit ||
    Навигация по главам: есть


    Код:

    General
    Unique ID                                : 228152820095943335726458515678821516028 (0xABA4A28308A7217A9263C172D01282FC)
    Complete name                            : D:\Торенты\Раздачи\The Grand Seduction. (2013) BDRip 1080p _Release for Piratbit.net_R.G. HD-Films .mkv
    Format                                   : Matroska
    Format version                           : Version 4 / Version 2
    File size                                : 6.81 GiB
    Duration                                 : 1h 53mn
    Overall bit rate                         : 8 623 Kbps
    Movie name                               : _Release for Piratbit.net_R.G. HD-Films
    Encoded date                             : UTC 2014-09-25 12:41:56
    Writing application                      : mkvmerge v7.1.0 ('Good Love') 64bit built on Jul 27 2014 13:06:55
    Writing library                          : libebml v1.3.0 + libmatroska v1.4.1
    DURATION                                 : 01:53:08.416000000
    NUMBER_OF_FRAMES                         : 212138
    NUMBER_OF_BYTES                          : 380151296
    _STATISTICS_WRITING_APP                  : mkvmerge v7.1.0 ('Good Love') 64bit built on Jul 27 2014 13:06:55
    _STATISTICS_WRITING_DATE_UTC             : 2014-09-25 12:41:56
    _STATISTICS_TAGS                         : BPS DURATION NUMBER_OF_FRAMES NUMBER_OF_BYTES
    Attachment                               : Yes / Yes

    Video
    ID                                       : 1
    Format                                   : AVC
    Format/Info                              : Advanced Video Codec
    Format profile                           : High@L4.1
    Format settings, CABAC                   : Yes
    Format settings, ReFrames                : 4 frames
    Codec ID                                 : V_MPEG4/ISO/AVC
    Duration                                 : 1h 53mn
    Bit rate                                 : 8 173 Kbps
    Width                                    : 1 920 pixels
    Height                                   : 1 040 pixels
    Display aspect ratio                     : 16:9
    Frame rate                               : 23.976 fps
    Color space                              : YUV
    Chroma subsampling                       : 4:2:0
    Bit depth                                : 8 bits
    Scan type                                : Progressive
    Bits/(Pixel*Frame)                       : 0.171
    Stream size                              : 6.32 GiB (93%)
    Title                                    : _Release for Piratbit.net_R.G. HD-Films
    Writing library                          : x264 core 142 r2479 dd79a61
    Encoding settings                        : cabac=1 / ref=4 / deblock=1:-3:-3 / analyse=0x3:0x113 / me=umh / subme=8 / psy=1 / psy_rd=1.00:0.00 / mixed_ref=1 / me_range=16 / chroma_me=1 / trellis=1 / 8x8dct=1 / cqm=0 / deadzone=21,11 / fast_pskip=1 / chroma_qp_offset=-2 / threads=12 / lookahead_threads=2 / sliced_threads=0 / nr=0 / decimate=1 / interlaced=0 / bluray_compat=0 / constrained_intra=0 / bframes=3 / b_pyramid=2 / b_adapt=2 / b_bias=0 / direct=3 / weightb=1 / open_gop=0 / weightp=2 / keyint=240 / keyint_min=24 / scenecut=40 / intra_refresh=0 / rc_lookahead=50 / rc=2pass / mbtree=1 / bitrate=8173 / ratetol=1.0 / qcomp=0.60 / qpmin=0 / qpmax=69 / qpstep=4 / cplxblur=20.0 / qblur=0.5 / ip_ratio=1.40 / aq=1:1.00
    Language                                 : Russian
    Default                                  : Yes
    Forced                                   : No
    _STATISTICS_WRITING_APP                  : mkvmerge v7.1.0 ('Good Love') 64bit built on Jul 27 2014 13:06:55
    _STATISTICS_WRITING_DATE_UTC             : 2014-09-25 12:41:56
    _STATISTICS_TAGS                         : BPS DURATION NUMBER_OF_FRAMES NUMBER_OF_BYTES
    DURATION                                 : 01:53:08.407000000
    NUMBER_OF_FRAMES                         : 162759
    NUMBER_OF_BYTES                          : 6935248363

    Audio
    ID                                       : 2
    Format                                   : AC-3
    Format/Info                              : Audio Coding 3
    Mode extension                           : CM (complete main)
    Codec ID                                 : A_AC3
    Duration                                 : 1h 53mn
    Bit rate mode                            : Constant
    Bit rate                                 : 448 Kbps
    Channel(s)                               : 6 channels
    Channel positions                        : Front: L C R, Side: L R, LFE
    Sampling rate                            : 48.0 KHz
    Bit depth                                : 16 bits
    Compression mode                         : Lossy
    Stream size                              : 363 MiB (5%)
    Title                                    : MVO Лицензия
    Language                                 : Russian
    Default                                  : Yes
    Forced                                   : No

    Menu
    00:00:00.000                             : en:00:00:00.000
    00:08:31.428                             : en:00:08:31.428
    00:15:51.033                             : en:00:15:51.033
    00:21:00.634                             : en:00:21:00.634
    00:29:02.074                             : en:00:29:02.074
    00:36:40.865                             : en:00:36:40.865
    00:45:05.703                             : en:00:45:05.703
    00:51:12.152                             : en:00:51:12.152
    00:58:23.750                             : en:00:58:23.750
    01:06:46.586                             : en:01:06:46.586
    01:12:34.100                             : en:01:12:34.100
    01:20:29.241                             : en:01:20:29.241
    01:27:37.169                             : en:01:27:37.169
    01:32:48.021                             : en:01:32:48.021
    01:40:28.940                             : en:01:40:28.940
    01:49:11.044                             : en:01:49:11.044

    Скриншоты:


    Релиз подготовлен специально для Piratbit.net. by Raven
    pb.wtf



  • Скачать Большая афера через торрент https://pic1.kartinco.top/images/61/stazu.jpg Скачать, смотреть онлайн Большая афера бесплантно в хорошем качестве Описание:Добро пожаловать в рай, где исполняются все желания! Маленький живописный городок у моря. Население: 120 отъявленных лжецов. И им ... 9.8 10 9
    Торрент: Зарегистрирован [2014-09-26 11:46] · скачан: 212 раз
    Статус: √ проверено
    Размер: 6.81 GB
    Как cкачать? Как скачать Большая афера через торрент | UTorrent



    Последний раз редактировалось: Ворон (2014-09-26 11:46), всего редактировалось 1 раз

    28-11-2019 20:33  

    Отключить всю рекламу на сайте

    25-09-2014 17:20 Большая афера Скачать торрент  

    wtf? 99% pb.wtf



    25-09-2014 18:26 Большая афера Скачать торрент  

    zevs102 писал(а):

    wtf? 99%

    все норм х.з.pb.wtf



    26-09-2014 11:49 Большая афера Скачать торрент  

    zevs102, alexram, обновил торрент-файл просьба перехешировать раздачу.pb.wtf



      Дорогой пользователь! Огромная просьба, поблагодарите релизера, оцените раздачу и оставьте свои комментарий, если Вы скачали Большая афера через торрент бесплатно!
      Комментировать посты могут только пользователи прошедшие не сложную регистрацию
      Показать сообщения:    

      Большая афера через торрент
      Скачать бесплатно Большая афера
      Большая афера скачать торрент
      Большая афера смотреть онлайн
      Cкачать фильм Большая афера бесплатно
      Большая афера скачать торрент в хорошем качестве
      Большая афера смотреть онлайн бесплатно в хорошем качестве


      Вы не можете начинать темы
      Вы не можете отвечать на сообщения
      Вы не можете редактировать свои сообщения
      Вы не можете удалять свои сообщения
      Вы не можете голосовать в опросах
      Вы не можете прикреплять файлы к сообщениям
      Вы можете скачивать файлы