Ссылка на приватное зеркало нашего сайта всего за 1$. Внимание количество ограничено!!!

2 сезон

iTunes

1 сезон

1

iTunes

iTunes

iTunes

1 сезон

RePack

30

ИГРА 18+

pack

ВАЖНО

!!Акция!!

Alien_RageХит недели

RePack

MK11
pack

Забери бонус

RePack

jed

!!Акция!!

Alien_Rage

RePack

fifa19

RePack

Assassins Creed: Odyssey

RePack

NEED FOR SPEED™ PAYBACK

4 сезон

9 сезон

Бесстыжие 9 сезон

Все сериалы

все сериалы на PB.wtf

RePack

FAR CRY 5
  

Бродяга / Ragamuffin (Дэвид Шульц) [2014, драма, биография, HDRip, Любительский (одноголосый) pb.wtf

Бродяга через торрент pb.wtf

Размер: 2.18 GB | Добавлен: 6 лет назад | Торрент скачан:20 раз
Скачать  

25-09-2014 16:26 Бродяга Скачать торрент  

Бродяга / Ragamuffin
«In the end it's not gonna matter if you have a few scars, but it will matter if you didn't live»

Год выпуска: 2014
Страна: США
Жанр:драма, биография
Продолжительность:02:20:36
Перевод:Любительский (одноголосый) ИндивИдуалист
Режиссер:Дэвид Шульц

  • В ролях:

    Дэвид Шульц (Sam Howard), Michael Koch (Rich Mullins), Вольфганг Бодисон (Bryan), Джеймс Кайсон Ли (Matt), Mitch McVicker (играет самого себя), Элизабет Робертс (Jessica), Карсон Он (Justin), Мэл Фэйр (John Mullins), Bill Clem (Gary), Sam Howard (Maurice Howard), Эми Шульц (Amy Grant), Кристи Брук (Sprinkle)

  • Описание:
    Фильм про Ричарда Маллинса, композитора, музыканта, исполнителя в жанре христианской музыки. Рич старался найти себя, обрести веру в Бога и сказать людям нечто важное своим творчеством. Ричард относился к социальным благам, как к разрушающему человека явлению, и хотя он заработал миллионы, бухгалтер по его просьбе выдавал ему ежемесячное пособие в размере среднего заработка - остальное он отдавал в церковь на пожертвования. Ричард Маллинс никогда не знал точную сумму, которую он заработал.

  • Мировая премьера:9 января 2014

    Качество: HDRip
    Формат:AVI
    Видео кодек: XviD
    Аудио кодек:AC3
    Видео: XviD, 688x384 (16:9), 1766 kbps, 23,976 fps, 0,279 bpp
    Аудио: AC3 / 5.1 / 48 kHz / 448 kbps / 16 bit


    Код:

    General
    Complete name                            : D:\Торенты\Ragamuffin_2014_HDRip_2.18gb.avi
    Format                                   : AVI
    Format/Info                              : Audio Video Interleave
    Format profile                           : OpenDML
    File size                                : 2.18 GiB
    Duration                                 : 2h 20mn
    Overall bit rate                         : 2 215 Kbps
    Writing application                      : VirtualDubModRus 1.5.10.2 (build 2542/release)
    Writing library                          : VirtualDubMod build 2542/release

    Video
    ID                                       : 0
    Format                                   : MPEG-4 Visual
    Format profile                           : Advanced Simple@L5
    Format settings, BVOP                    : 1
    Format settings, QPel                    : No
    Format settings, GMC                     : No warppoints
    Format settings, Matrix                  : Custom
    Codec ID                                 : XVID
    Codec ID/Hint                            : XviD
    Duration                                 : 2h 20mn
    Bit rate                                 : 1 766 Kbps
    Width                                    : 688 pixels
    Height                                   : 384 pixels
    Display aspect ratio                     : 16:9
    Frame rate                               : 23.976 fps
    Color space                              : YUV
    Chroma subsampling                       : 4:2:0
    Bit depth                                : 8 bits
    Scan type                                : Progressive
    Compression mode                         : Lossy
    Bits/(Pixel*Frame)                       : 0.279
    Stream size                              : 1.73 GiB (80%)
    Writing library                          : XviD 1.2.1 (UTC 2008-12-04)

    Audio
    ID                                       : 1
    Format                                   : AC-3
    Format/Info                              : Audio Coding 3
    Mode extension                           : CM (complete main)
    Codec ID                                 : 2000
    Duration                                 : 2h 17mn
    Bit rate mode                            : Constant
    Bit rate                                 : 448 Kbps
    Channel(s)                               : 6 channels
    Channel positions                        : Front: L C R, Side: L R, LFE
    Sampling rate                            : 48.0 KHz
    Bit depth                                : 16 bits
    Compression mode                         : Lossy
    Stream size                              : 440 MiB (20%)
    Alignment                                : Split accross interleaves
    Interleave, duration                     : 43 ms (1.02 video frame)
    Interleave, preload duration             : 500 ms

    Скриншоты:



    © Оформление by Ravenpb.wtf



  • Скачать Бродяга через торрент http://pic.kartinco.top/images/6/stazu.jpg Скачать фильм Бродяга через торрент бесплантно в хорошем качестве Описание:Фильм про Ричарда Маллинса, композитора, музыканта, исполнителя в жанре христианской музыки. Рич старался найти себя, обрести веру ... 4 10 3
    Торрент: Зарегистрирован [2014-09-25 16:26] · скачан: 20 раз
    Статус: T временная
    Размер: 2.18 GB
    Как cкачать? Как скачать Бродяга через торрент | qTorrent

    28-11-2019 20:33  

    Отключить всю рекламу на сайте

      Дорогой пользователь! Огромная просьба, поблагодарите релизера, оцените раздачу и оставьте свои комментарий, если Вы скачали Бродяга через торрент бесплатно! Внесите свою лепту в развитие PiratBit!
      Комментировать посты могут только пользователи прошедшие не сложную регистрацию
      Показать сообщения:    

      Бродяга через торрент
      Скачать бесплатно Бродяга
      Бродяга скачать торрент
      Бродяга смотреть онлайн
      Cкачать фильм Бродяга бесплатно
      Бродяга скачать торрент в хорошем качестве
      Бродяга смотреть онлайн бесплатно в хорошем качестве


      Вы не можете начинать темы
      Вы не можете отвечать на сообщения
      Вы не можете редактировать свои сообщения
      Вы не можете удалять свои сообщения
      Вы не можете голосовать в опросах
      Вы не можете прикреплять файлы к сообщениям
      Вы можете скачивать файлы