Ссылка на приватное зеркало нашего сайта всего за 1$. Внимание количество ограничено!!!

2 сезон

iTunes

1 сезон

1

iTunes

iTunes

iTunes

1 сезон

RePack

30

ИГРА 18+

pack

ВАЖНО

!!Акция!!

Alien_RageХит недели

RePack

MK11
pack

Забери бонус

RePack

jed

!!Акция!!

Alien_Rage

RePack

fifa19

RePack

Assassins Creed: Odyssey

RePack

NEED FOR SPEED™ PAYBACK

4 сезон

9 сезон

Бесстыжие 9 сезон

Все сериалы

все сериалы на PB.wtf

RePack

FAR CRY 5
  

Школа монстров: Монстрические мутации / Monster High: Freaky Fusion (Уильям Лау, Сильвен Блэ) [2014 г., мультфильм, BDRip, Дубляж, Лицензия] pb.wtf

Школа монстров: Монстрические мутации через торрент pb.wtf

Раздают: 1 [ 0 KB/s ]
Размер: 1.46 GB | Добавлен: 6 лет назад | Торрент скачан:653 раза
Скачать  

25-09-2014 16:44 Школа монстров: Монстрические мутации Скачать торрент  

Школа монстров: Монстрические мутации / Monster High: Freaky Fusion
Год выпуска: 2014
Страна: США / Mattel Playground Productions
Жанр: мультфильм
Продолжительность: 01:13:33
Перевод: Дубляж (Лицензия)

Режиссер: Уильям Лау, Сильвен Блэ

В ролях: Лора Бэйли, Кейт Хиггинс, Паула Родс, Хэвиланд Стиллвелл, Америка Янг, Эрин Фицджералд, Дэйв Митчелл, Сью Свон, Джони Гуд, Селеста Хендерсон

Описание: Когда лаборатории в результате аварии появляются 4 новых монстра и 8 монстров перемешиваются телами, Фрэнки и новый гибридный студент пытается помочь ей привести друзей из Монстрических Мутаций в норму и остановить научный эксперимент, который пошел не так, прежде чем аппарат в лаборатории сломается окончательно.

Качество: BDRip (Рип с Blu-ray EUR 1080p AVC DTS 5.1)
Формат: AVI
Видео кодек: XviD
Аудио кодек: AC3
Видео: MPEG4, XviD, 720x400 (16:9), 23.976 fps, 2 389 Kbps (0.346 bit/pixel)
Аудио: AC-3, 48.0 KHz, 6 ch, 448 Kbps, CBR


Общее
Полное имя : G:\кино\Школа монстров Монстрические мутации.2014.BDRip.avi
Формат : AVI
Формат/Информация : Audio Video Interleave
Размер файла : 1,46 Гбайт
Продолжительность : 1 ч. 13 м.
Общий поток : 2846 Кбит/сек
Программа кодирования : VirtualDubMod 1.5.10.3 | www.virtualdub-fr.org || (build 2550/release)
Библиотека кодирования : VirtualDubMod build 2550/release

Видео
Идентификатор : 0
Формат : MPEG-4 Visual
Профиль формата : Advanced Simple@L5
Параметр BVOP формата : 2
Параметр QPel формата : Нет
Параметр GMC формата : Без точки перехода
Параметр матрицы формата : Default (H.263)
Идентификатор кодека : XVID
Идентификатор кодека/Подсказка : XviD
Продолжительность : 1 ч. 13 м.
Битрейт : 2389 Кбит/сек
Ширина : 720 пикселей
Высота : 400 пикселей
Соотношение сторон : 16:9
Частота кадров : 23,976 кадра/сек
Цветовое пространство : YUV
Субдискретизация насыщенности : 4:2:0
Битовая глубина : 8 бит
Тип развёртки : Прогрессивная
Метод сжатия : С потерями
Бит/(Пиксели*Кадры) : 0.346
Размер потока : 1,23 Гбайт (84%)
Библиотека кодирования : XviD 1.2.1 (UTC 2008-12-04)

Аудио
Идентификатор : 1
Формат : AC-3
Формат/Информация : Audio Coding 3
Расширение режима : CM (complete main)
Параметр Endianness формата : Big
Идентификатор кодека : 2000
Продолжительность : 1 ч. 13 м.
Вид битрейта : Постоянный
Битрейт : 448 Кбит/сек
Каналы : 6 каналов
Расположение каналов : Front: L C R, Side: L R, LFE
Частота : 48,0 КГц
Битовая глубина : 16 бит
Метод сжатия : С потерями
Размер потока : 236 Мбайт (16%)
Выравнивание : Разделение по промежуткам
Продолжительность промежутка : 42 мс. (1,00 видеокадр)
Время предзагрузки промежутка : 500 мс.

pb.wtf



Скачать Школа монстров: Монстрические мутации через торрент http://pic.kartinco.top/images/7/jxe63.jpg Скачать фильм Школа монстров: Монстрические мутации через торрент бесплантно в хорошем качестве Описание: Когда лаборатории в результате аварии появляются 4 новых монстра и 8 монстров перемешиваются телами, Фрэнки и новый гибридный ... 8.3 10 29
Info! Золотая раздача, скачанное не засчитывается.
Торрент: Зарегистрирован [2014-09-25 16:44] · скачан: 653 раз
Статус: √ проверено
Размер: 1.46 GB
Как cкачать? Как скачать Школа монстров: Монстрические мутации через торрент | qTorrent

% Раздел Тема Автор DL S | L
Иностранные мультфильмы [ 1.45 GB ] Школа монстров: Монстрические мутации / Monster High: Freaky Fusion [2014 сказка BDRip ] Se7ven95 Скачать
1 | 0

28-11-2019 20:33  

Отключить всю рекламу на сайте

    Дорогой пользователь! Огромная просьба, поблагодарите релизера, оцените раздачу и оставьте свои комментарий, если Вы скачали Школа монстров: Монстрические мутации через торрент бесплатно! Внесите свою лепту в развитие PiratBit!
    Комментировать посты могут только пользователи прошедшие не сложную регистрацию
    Показать сообщения:    

    Школа монстров: Монстрические мутации через торрент
    Скачать бесплатно Школа монстров: Монстрические мутации
    Школа монстров: Монстрические мутации скачать торрент
    Школа монстров: Монстрические мутации смотреть онлайн
    Cкачать фильм Школа монстров: Монстрические мутации бесплатно
    Школа монстров: Монстрические мутации скачать торрент в хорошем качестве
    Школа монстров: Монстрические мутации смотреть онлайн бесплатно в хорошем качестве


    Вы не можете начинать темы
    Вы не можете отвечать на сообщения
    Вы не можете редактировать свои сообщения
    Вы не можете удалять свои сообщения
    Вы не можете голосовать в опросах
    Вы не можете прикреплять файлы к сообщениям
    Вы можете скачивать файлы