Ссылка на приватное зеркало всего за 1$. Внимание количество ограничено!!!

iTunes

iTunes

iTunes

1

iTunes

iTunes

iTunes

iTunes

iTunes

30
pack

$ от Little Big

ВАЖНО

!!Акция!!

Alien_RageХит недели

RePack

Resident Evil 21

ИГРА 18+

pack

RePack

jed

!!Акция!!

Alien_Rage

RePack

fifa19

RePack

Assassins Creed: Odyssey

RePack

NEED FOR SPEED™ PAYBACK

4 сезон

9 сезон

Бесстыжие 9 сезон

Все сериалы

все сериалы на PB.wtf

RePack

FAR CRY 5
  

Ясное озеро / Clear Lake, WI (Брайан Иде / Brian Ide) [2009, США, триллер, HDTV 1080p, Профессиональный многоголосый - Лицензия] pb.wtf

Ясное озеро через торрент pb.wtf

Размер: 4.82 GB | Добавлен: 5 лет 9 мес. назад | Торрент скачан:44 раза
Скачать  

26-09-2014 09:59 Ясное озеро Скачать торрент  

Ясное озеро / Clear Lake, WI «Bury the past or it will Bury you»
Год выпуска: 2009
Страна: США
Жанр: триллер
Продолжительность: 01:23:41
Перевод: Профессиональный многоголосый [Лицензия]
Субтитры: Отсутствует
Режиссер: Брайан Иде / Brian Ide
В ролях:


Дастин Бут (Reed Bolling), Морган Симпсон (Michael Perry), Гриннелл Моррис (Sam O'Connell), Ши Не Нилсон (Kyra Sannhet), Карла Тоутз (Beth Retter), Хезер Симпсон (Nikki O'Connell), Майкл Мэдсен (The Reverend), Жаклин Арройо (Girlfriend), Карсон Он (Young Reed), Майк Басон (Kidnapped Boy), Bridgette Bassa (Warrior Gidget), Пол Бен-Виктор (Sheriff Joe Dietzer)

Описание:
В 1994, жители небольшого города - Ясное Озеро, стали жертвой странной и ужасной болезни. Влиятельный местный пастор назвал вспышку странной болезни, наказанием за людские грехи. К тому времени, когда правоохранительные органы и сотрудники министерства здравоохранения прибыли, чтобы найти причину вспышки, уже тринадцать человек пропали без вести, а большинство горожан покинуло город.
Правительство эвакуировало оставшихся граждан и изолировало город. Пятнадцать лет спустя, режиссер-документалист разыскал четырех выживающих и убедил их возвратиться в Ясное Озеро, чтобы воспроизвести их историю, но после возвращения в пустой город, странные вещи начинают происходить снова...

Рейтинг:

Качество: HDTV [1080p]
Формат: MPEG-TS
Видео кодек:AVC
Аудио кодек:AC3
Видео: AVC, 1920x1080 (16:9), 7380 kbps, 25 fps, Interlaced (Top Field First), 0,142 bpp
Аудио: русский / AC3 / 5.1 / 48 kHz / 448 kbps / 16 bit

General
ID : 1 (0x1)
Complete name : D:\Users\_KaisiK_\uTorrent\КИНО\Ясное озеро.ts
Format : MPEG-TS
File size : 4.82 GiB
Duration : 1h 23mn
Overall bit rate mode : Variable
Overall bit rate : 8 240 Kbps
Maximum Overall bit rate : 35.5 Mbps

Video
ID : 4113 (0x1011)
Menu ID : 1 (0x1)
Format : AVC
Format/Info : Advanced Video Codec
Format profile : Main@L4.0
Format settings, CABAC : Yes
Format settings, ReFrames : 3 frames
Codec ID : 27
Duration : 1h 23mn
Bit rate mode : Variable
Bit rate : 7 380 Kbps
Maximum bit rate : 40.0 Mbps
Width : 1 920 pixels
Height : 1 080 pixels
Display aspect ratio : 16:9
Frame rate : 25.000 fps
Standard : Component
Color space : YUV
Chroma subsampling : 4:2:0
Bit depth : 8 bits
Scan type : Interlaced
Scan order : Top Field First
Bits/(Pixel*Frame) : 0.142
Stream size : 4.31 GiB (90%)

Audio
ID : 4352 (0x1100)
Menu ID : 1 (0x1)
Format : AC-3
Format/Info : Audio Coding 3
Mode extension : CM (complete main)
Codec ID : 129
Duration : 1h 23mn
Bit rate mode : Constant
Bit rate : 448 Kbps
Channel(s) : 6 channels
Channel positions : Front: L C R, Side: L R, LFE
Sampling rate : 48.0 KHz
Bit depth : 16 bits
Compression mode : Lossy
Stream size : 268 MiB (5%)
Language : Russian

[/code]
pb.wtf



Скачать Ясное озеро через торрент http://i1.imageban.ru/out/2014/09/26/bbcd272529022754e023cae578a90ce3.jpg Скачать фильм Ясное озеро через торрент бесплантно в хорошем качестве Описание: В 1994, жители небольшого города - Ясное Озеро, стали жертвой странной и ужасной болезни. Влиятельный местный пастор назвал ... 10 10 3
Торрент: Зарегистрирован [2014-09-26 09:59] · скачан: 44 раз
Статус: √ проверено
Размер: 4.82 GB
Как cкачать? Как скачать Ясное озеро через торрент | qTorrent

28-11-2019 20:33  

Отключить всю рекламу на сайте

    Дорогой пользователь! Огромная просьба, поблагодарите релизера, оцените раздачу и оставьте свои комментарий, если Вы скачали Ясное озеро через торрент бесплатно! Внесите свою лепту в развитие PiratBit!
    Комментировать посты могут только пользователи прошедшие не сложную регистрацию
    Показать сообщения:    

    Ясное озеро через торрент
    Скачать бесплатно Ясное озеро
    Ясное озеро скачать торрент
    Ясное озеро смотреть онлайн
    Cкачать фильм Ясное озеро бесплатно
    Ясное озеро скачать торрент в хорошем качестве
    Ясное озеро смотреть онлайн бесплатно в хорошем качестве


    Вы не можете начинать темы
    Вы не можете отвечать на сообщения
    Вы не можете редактировать свои сообщения
    Вы не можете удалять свои сообщения
    Вы не можете голосовать в опросах
    Вы не можете прикреплять файлы к сообщениям
    Вы можете скачивать файлы