Ссылка на приватное зеркало нашего сайта всего за 1$. Внимание количество ограничено!!!

2 сезон

iTunes

1 сезон

1

iTunes

iTunes

iTunes

1 сезон

RePack

30

ИГРА 18+

pack

ВАЖНО

!!Акция!!

Alien_RageХит недели

RePack

MK11
pack

Забери бонус

RePack

jed

!!Акция!!

Alien_Rage

RePack

fifa19

RePack

Assassins Creed: Odyssey

RePack

NEED FOR SPEED™ PAYBACK

4 сезон

9 сезон

Бесстыжие 9 сезон

Все сериалы

все сериалы на PB.wtf

RePack

FAR CRY 5
  

Город грехов 2: Женщина, ради которой стоит убивать / Sin City: A Dame to Kill For (Роберт Родригес, Фрэнк Миллер) [2014, триллер, криминал, BDRip 720p] DUB Лицензия pb.wtf

Город грехов 2: Женщина, ради которой стоит убивать через торрент pb.wtf

Размер: 4.32 GB | Добавлен: 6 лет 1 мес. назад | Торрент скачан:2667 раз
Скачать  

26-09-2014 10:21 Город грехов 2: Женщина, ради которой стоит убивать Скачать торрент  

Город грехов 2: Женщина, ради которой стоит убивать / Sin City: A Dame to Kill For
«There is no justice without sin»

Год выпуска: 2014
Страна: США, Россия
Жанр:триллер, криминал
Продолжительность:01:42:46
Перевод:Дубляж - [Лицензия]
Режиссер:Роберт Родригес, Фрэнк Миллер

  • В ролях:

    Микки Рурк (Marv), Джессика Альба (Nancy), Джош Бролин (Dwight), Джозеф Гордон-Левитт (Johnny), Розарио Доусон (Gail), Брюс Уиллис (Hartigan), Ева Грин (Ava), Пауэрс Бут (Senator Roark), Деннис Хейсбёрт (Manute), Рэй Лиотта (Joey), Кристофер Мелони (Mort), Джереми Пивен (Bob)

  • Описание:
    В темных переулках Города Грехов Дуайт планирует жестоко отомстить женщине по имени Ава Лорд, которая его предала, в то время как Нэнси пытается смириться со смертью детектива Хартигана.

  • Мировая премьера:19 августа 2014

    Качество: BDRip 720p
    Формат:MKV
    Видео кодек: AVC
    Аудио кодек:AC3/DTS
    Видео: 1280x692 (1.85:1) at 24.000 fps, 3864 kbps avg, 0.182 bit/pixel
    Аудио1: русский / AC3 / 5.1 / 48 kHz / 640 kbps / 16 bit ||
    Аудио2: русский /DTS, 6 ch, 1510 Кбит/с / 48 kHz||


    Код:

    x264 [info]: frame I:1886 Avg QP:14.11 size:107474
    x264 [info]: frame P:43517 Avg QP:17.09 size: 34399
    x264 [info]: frame B:102581 Avg QP:20.27 size: 12460
    x264 [info]: consecutive B-frames: 6.7% 6.3% 18.1% 35.4% 14.3% 15.4% 2.0% 1.7%
    x264 [info]: mb I I16..4: 7.8% 62.3% 29.9%
    x264 [info]: mb P I16..4: 1.4% 14.9% 3.6% P16..4: 28.1% 24.3% 9.9% 2.1% 0.4% skip:15.3%
    x264 [info]: mb B I16..4: 0.3% 2.6% 0.6% B16..8: 27.9% 15.9% 2.6% direct: 5.3% skip:44.8% L0:37.9% L1:41.9% BI:20.2%
    --------------------------
    General
    Unique ID : 217973241968789962985690516341555823601 (0xA3FC1E8F9349006D95EA81889C0D83F1)
    Complete name : Sin.City.2.2014.BD.720.Hot-Film.mkv
    Format : Matroska
    Format version : Version 2
    File size : 4.32 GiB
    Duration : 01:42:46
    Overall bit rate : 6 016 Kbps
    Encoded date : UTC 2014-09-27 07:17:52
    Writing application : mkvmerge v5.8.0 ('No Sleep / Pillow') built on Sep 2 2012 15:37:04
    Writing library : libebml v1.2.3 + libmatroska v1.3.0
    Attachment : Yes

    Video
    ID : 1
    Format : AVC
    Format/Info : Advanced Video Codec
    Format profile : High@L4.1
    Format settings, CABAC : Yes
    Format settings, ReFrames : 9 frames
    Codec ID : V_MPEG4/ISO/AVC
    Duration : 1h 42mn
    Bit rate : 3 864 Kbps
    Width : 1 280 pixels
    Height : 692 pixels
    Display aspect ratio : 1.85:1
    Frame rate mode : Constant
    Frame rate : 24.000 fps
    Color space : YUV
    Chroma subsampling : 4:2:0
    Bit depth : 8 bits
    Scan type : Progressive
    Bits/(Pixel*Frame) : 0.182
    Stream size : 2.69 GiB (62%)
    Writing library : x264 core 142 r2431 ac76440
    Encoding settings : cabac=1 / ref=9 / deblock=1:-3:-3 / analyse=0x3:0x133 / me=umh / subme=11 / psy=1 / psy_rd=1.00:0.10 / mixed_ref=1 / me_range=32 / chroma_me=1 / trellis=2 / 8x8dct=1 / cqm=0 / deadzone=21,11 / fast_pskip=0 / chroma_qp_offset=-3 / threads=12 / lookahead_threads=2 / sliced_threads=0 / nr=0 / decimate=0 / interlaced=0 / bluray_compat=0 / constrained_intra=0 / bframes=7 / b_pyramid=2 / b_adapt=2 / b_bias=0 / direct=3 / weightb=1 / open_gop=0 / weightp=2 / keyint=240 / keyint_min=24 / scenecut=40 / intra_refresh=0 / rc_lookahead=40 / rc=2pass / mbtree=0 / bitrate=3864 / ratetol=1.0 / qcomp=0.60 / qpmin=0 / qpmax=69 / qpstep=4 / cplxblur=20.0 / qblur=0.5 / vbv_maxrate=50000 / vbv_bufsize=62500 / nal_hrd=none / filler=0 / ip_ratio=1.40 / pb_ratio=1.30 / aq=1:0.80
    Language : English
    Default : Yes
    Forced : No

    Audio #1
    ID : 2
    Format : AC-3
    Format/Info : Audio Coding 3
    Mode extension : CM (complete main)
    Format settings, Endianness : Big
    Codec ID : A_AC3
    Duration : 1h 42mn
    Bit rate mode : Constant
    Bit rate : 640 Kbps
    Channel(s) : 6 channels
    Channel positions : Front: L C R, Side: L R, LFE
    Sampling rate : 48.0 KHz
    Bit depth : 16 bits
    Compression mode : Lossy
    Stream size : 470 MiB (11%)
    Title : AC3
    Language : Russian
    Default : Yes
    Forced : No

    Audio #2
    ID : 3
    Format : DTS
    Format/Info : Digital Theater Systems
    Mode : 16
    Format settings, Endianness : Big
    Codec ID : A_DTS
    Duration : 1h 42mn
    Bit rate mode : Constant
    Bit rate : 1 510 Kbps
    Channel(s) : 6 channels
    Channel positions : Front: L C R, Side: L R, LFE
    Sampling rate : 48.0 KHz
    Bit depth : 24 bits
    Compression mode : Lossy
    Stream size : 1.08 GiB (25%)
    Title : DTS
    Language : Russian
    Default : No
    Forced : No

    Menu
    00:00:00.000 : :Chapter 01
    00:07:48.875 : :Chapter 02
    00:17:00.458 : :Chapter 03
    00:21:23.750 : :Chapter 04
    00:27:32.708 : :Chapter 05
    00:35:16.417 : :Chapter 06
    00:40:44.417 : :Chapter 07
    00:48:09.458 : :Chapter 08
    00:55:41.375 : :Chapter 09
    01:07:46.125 : :Chapter 10
    01:17:27.792 : :Chapter 11
    01:28:03.333 : :Chapter 12

    Скриншоты:



    © Оформление by Ravenpb.wtf



  • Скачать Город грехов 2: Женщина, ради которой стоит убивать через торрент http://pic.kartinco.top/images/6/stazu.jpg Скачать фильм Город грехов 2: Женщина, ради которой стоит убивать через торрент бесплантно в хорошем качестве Описание:В темных переулках Города Грехов Дуайт планирует жестоко отомстить женщине по имени Ава Лорд, которая его предала, в то время как ... 9.8 10 77
    Info! Золотая раздача, скачанное не засчитывается.
    Торрент: Зарегистрирован [2014-09-27 20:39] · скачан: 2 667 раз
    Статус: √ проверено
    Размер: 4.32 GB
    Как cкачать? Как скачать Город грехов 2: Женщина, ради которой стоит убивать через торрент | qTorrent

    % Раздел Тема Автор DL S | L
    3D Фильмы [ 7.52 GB ] Город грехов 2: Женщина ради которой стоит убивать 3Д / Sin City: A Dame to Kill For 3D [2014 BDRip 1080p] [Half OverUnder / Вертикальная анаморфная стереопара] DUB [] bober100 Скачать
    1 | 0
    Фильмы [HD 720p, 1080p] (Хороший звук DUB, MVO) [ 7.15 GB ] Город грехов 2: Женщина ради которой стоит убивать / Sin City: A Dame to Kill For [2014 BDRip 1080p Dub ] Seedtank Скачать
    3 | 0
    Фильмы 2014 [DVDrip, WEB-DLRip, HDrip] [ 2.19 GB ] Город грехов 2: Женщина ради которой стоит убивать / Sin City: A Dame to Kill For [2014 BDRip-AVC] DUB potroks Скачать
    1 | 0
    Фильмы 2014 [DVDrip, WEB-DLRip, HDrip] [ 2.46 GB ] Город грехов 2: Женщина ради которой стоит убивать / Sin City: A Dame to Kill For [2014 Россия HDRip-AVC] DUB _KaisiK_ Скачать
    1 | 0
    Фильмы (Blu-ray, BD-Remux, HDDVD) [ 14.46 GB ] Город грехов 2: Женщина ради которой стоит убивать / Sin City: A Dame to Kill For [2014 BD Remux] DUB Ворон Скачать
    1 | 0
    Фильмы 2014 [DVDrip, WEB-DLRip, HDrip] [ 745 MB ] Город грехов 2: Женщина ради которой стоит убивать / Sin City: A Dame to Kill For [2014 HDRip] DUB Ворон Скачать
    1 | 0


    Последний раз редактировалось: Ворон (2014-09-27 20:40), всего редактировалось 2 раз(а)

    28-11-2019 20:33  

    Отключить всю рекламу на сайте

    26-09-2014 11:24 Город грехов 2: Женщина, ради которой стоит убивать Скачать торрент  

    Опа, в хорошем качестве уже.pb.wtf



    27-09-2014 20:39 Город грехов 2: Женщина, ради которой стоит убивать Скачать торрент  

    Замена рипа на лучший по качеству.pb.wtf



    27-09-2014 21:10 Город грехов 2: Женщина, ради которой стоит убивать Скачать торрент  

    Хорошее продолжения, глянул с удовольствием..pb.wtf



    27-09-2014 22:08 Город грехов 2: Женщина, ради которой стоит убивать Скачать торрент  

    Шикарное кинцоpb.wtf



    28-09-2014 09:05 Город грехов 2: Женщина, ради которой стоит убивать Скачать торрент  

    Спасибо!pb.wtf



    30-09-2014 17:41 Город грехов 2: Женщина, ради которой стоит убивать Скачать торрент  

    спс за фильмчикpb.wtf



    02-10-2014 18:46 Город грехов 2: Женщина, ради которой стоит убивать Скачать торрент  

    Большое спасибо, достойное продолжение!pb.wtf



    13-10-2014 11:52 Город грехов 2: Женщина, ради которой стоит убивать Скачать торрент  

    Шодевр хулеpb.wtf



      Дорогой пользователь! Огромная просьба, поблагодарите релизера, оцените раздачу и оставьте свои комментарий, если Вы скачали Город грехов 2: Женщина, ради которой стоит убивать через торрент бесплатно! Внесите свою лепту в развитие PiratBit!
      Комментировать посты могут только пользователи прошедшие не сложную регистрацию
      Показать сообщения:    

      Город грехов 2: Женщина, ради которой стоит убивать через торрент
      Скачать бесплатно Город грехов 2: Женщина, ради которой стоит убивать
      Город грехов 2: Женщина, ради которой стоит убивать скачать торрент
      Город грехов 2: Женщина, ради которой стоит убивать смотреть онлайн
      Cкачать фильм Город грехов 2: Женщина, ради которой стоит убивать бесплатно
      Город грехов 2: Женщина, ради которой стоит убивать скачать торрент в хорошем качестве
      Город грехов 2: Женщина, ради которой стоит убивать смотреть онлайн бесплатно в хорошем качестве


      Вы не можете начинать темы
      Вы не можете отвечать на сообщения
      Вы не можете редактировать свои сообщения
      Вы не можете удалять свои сообщения
      Вы не можете голосовать в опросах
      Вы не можете прикреплять файлы к сообщениям
      Вы можете скачивать файлы