2 сезон

iTunes

MVO

1

2 сезон

iTunes

iTunes

1 сезон

RePack

30

Новинка

ВАЖНО

ИГРА 18+

pack

RePack

MK11
pack

Легкие деньги

RePack

jed

RePack

fifa19

RePack

RDR2

RePack

NEED FOR SPEED™ PAYBACK

4 сезон

9 сезон

Бесстыжие 9 сезон

Все сериалы

все сериалы на PB.wtf

RePack

FAR CRY 5

Anonymous, добрый день, мы не успеваем собрать деньги на оплату серверов за декабрь и январь, помогите нам пожалуйста в это трудное время. В качестве благодарности мы отключим Вам всю рекламу на сайте (укажите свой ник в строку Ваше имя)!

×
  
Magnet ссылка

Она / Her (Спайк Джонс) [2013, мелодрама, драма, фантастика, HDRip] DUB Лицензия pb.wtf

Она через торрент pb.wtf

Размер: 1.37 GB | Добавлен: 6 лет 4 мес. назад | Торрент скачан:353 раза
Скачать  

26-09-2014 10:43 Она Скачать торрент  

Она / Her


Год выпуска: 2013
Страна: США
Жанр:мелодрама, драма, фантастика
Продолжительность:02:05:50
Перевод:Дубляж - [Лицензия]
Режиссер:Спайк Джонс

  • В ролях:

    Хоакин Феникс (Theodore), Скарлетт Йоханссон (Samantha, озвучка), Эми Адамс (Amy), Руни Мара (Catherine), Оливия Уайлд (Blind Date), Крис Прэтт (Paul), Мэтт Летчер (Charles), Портия Даблдэй (Surrogate Date Isabella), Лаура Кай Чен (Tatiana), Спайк Джонс (Alien Child, озвучка), Кристен Уиг (SexyKitten, озвучка), Брайан Кокс (Alan Watts, озвучка)

  • Описание:
    Теодор - одинокий писатель, покупает новую техническую разработку - операционную систему, призванную исполнять любое желание пользователя. К удивлению Теодора, вскоре между ним и операционной системой возникает роман.

  • Мировая премьера:12 октября 2013

    Качество: HDRip
    Формат:AVI
    Видео кодек: XviD
    Аудио кодек:AC3
    Видео: XviD, 720x384 (1.875), 1161 kbps, 23,976 fps, 0,175 bpp
    Аудио: AC3 / 5.1 / 48 kHz / 384 kbps / 16 bit


    Код:

    General
    Complete name                            : D:\Торенты\Ona.2013.D.HDRip.1400MB.avi
    Format                                   : AVI
    Format/Info                              : Audio Video Interleave
    File size                                : 1.37 GiB
    Duration                                 : 2h 5mn
    Overall bit rate                         : 1 555 Kbps
    Writing application                      : VirtualDubMod 1.5.10.2 (build 2540/release)
    Writing library                          : VirtualDubMod build 2540/release

    Video
    ID                                       : 0
    Format                                   : MPEG-4 Visual
    Format profile                           : Advanced Simple@L5
    Format settings, BVOP                    : 2
    Format settings, QPel                    : No
    Format settings, GMC                     : No warppoints
    Format settings, Matrix                  : Custom
    Codec ID                                 : XVID
    Codec ID/Hint                            : XviD
    Duration                                 : 2h 5mn
    Bit rate                                 : 1 162 Kbps
    Width                                    : 720 pixels
    Height                                   : 384 pixels
    Display aspect ratio                     : 1.875
    Frame rate                               : 23.976 fps
    Color space                              : YUV
    Chroma subsampling                       : 4:2:0
    Bit depth                                : 8 bits
    Scan type                                : Progressive
    Compression mode                         : Lossy
    Bits/(Pixel*Frame)                       : 0.175
    Stream size                              : 1.02 GiB (75%)
    Writing library                          : XviD 1.2.1 (UTC 2008-12-04)

    Audio
    ID                                       : 1
    Format                                   : AC-3
    Format/Info                              : Audio Coding 3
    Mode extension                           : CM (complete main)
    Codec ID                                 : 2000
    Duration                                 : 2h 5mn
    Bit rate mode                            : Constant
    Bit rate                                 : 384 Kbps
    Channel(s)                               : 6 channels
    Channel positions                        : Front: L C R, Side: L R, LFE
    Sampling rate                            : 48.0 KHz
    Bit depth                                : 16 bits
    Compression mode                         : Lossy
    Stream size                              : 346 MiB (25%)
    Alignment                                : Split accross interleaves
    Interleave, duration                     : 42 ms (1.00 video frame)
    Interleave, preload duration             : 500 ms

    Скриншоты:



    © Оформление by Ravenpb.wtf



  • Скачать Она через торрент https://pic.kartinco.top/images/6/stazu.jpg Скачать фильм Она через торрент бесплантно в хорошем качестве Описание:Теодор - одинокий писатель, покупает новую техническую разработку - операционную систему, призванную исполнять любое желание ... 8.7 10 7
    Торрент: Зарегистрирован [2014-09-26 10:43] · скачан: 353 раз
    Статус: √ проверено
    Размер: 1.37 GB
    Как cкачать? Как скачать Она через торрент | UTorrent

    % Раздел Тема Автор DL S | L
    Ultra HD (UHD: 2K, 4K, 8K) — видео сверхвысокой чёткости [ 57.5 GB ] Фантастические твари и где они обитают / Fantastic Beasts and Where to Find Them [2016 UHD BDRemux 2160p] DUB [] + 2xAVO sheker187 Скачать
    2 | 0
    Фильмы (HD 720p, 1080p) (48-60 fps) [ 4.31 GB ] Фантастические твари и где они обитают / Fantastic Beasts and Where to Find Them [2016 BDRip 720p 60 fps от еnvy / NNNB] DUB / еnvy Скачать
    25 | 1
    Фильмы [HD 720p, 1080p] (Хороший звук DUB, MVO) [ 7.72 GB ] Фантастические твари и где они обитают / Fantastic Beasts and Where to Find Them [2016 BDRip 1080p от еnvy / NNNB] DUB / еnvy Скачать
    72 | 5
    Ultra HD (UHD: 2K, 4K, 8K) — видео сверхвысокой чёткости [ 50.86 GB ] Фантастические твари и где они обитают / Fantastic Beasts and Where to Find Them [2016 экранизация UHD BDRemux 2160p] DUB [] bober100 Скачать
    2 | 0
    Фильмы (Blu-ray, BD-Remux, HDDVD) [ 35.68 GB ] Фантастические твари и где они обитают / Fantastic Beasts and Where to Find Them [2016 экранизация BD Remux 1080p] [] 2xDUB+2xAVO bober100 Скачать
    2 | 0
    T Релизы по Парсеру [Игры, Сериалы и Фильмы и другое...] [ 46.44 GB ] Фантастические твари и где они обитают / Fantastic Beasts and Where to Find Them [2016 Blu-Ray 1080p] [] + [Sub] batonchik Скачать
    1 | 0
    Фильмы 2016 [DVDrip, WEB-DLRip, HDrip] (DUB, MVO) [ 746 MB ] Фантастические твари и где они обитают / Fantastic Beasts and Where to Find Them [2016 BDRip-AVC от sokol_ok] sokol_ok Скачать
    2 | 0

    28-11-2019 20:33  

    Отключить всю рекламу на сайте

      Дорогой пользователь! Огромная просьба, поблагодарите релизера, оцените раздачу и оставьте свои комментарий, если Вы скачали Она через торрент бесплатно! Внесите свою лепту в развитие PiratBit!
      Комментировать посты могут только пользователи прошедшие не сложную регистрацию
      Показать сообщения:    

      Она через торрент
      Скачать бесплатно Она
      Она скачать торрент
      Она смотреть онлайн
      Cкачать фильм Она бесплатно
      Она скачать торрент в хорошем качестве
      Она смотреть онлайн бесплатно в хорошем качестве


      Вы не можете начинать темы
      Вы не можете отвечать на сообщения
      Вы не можете редактировать свои сообщения
      Вы не можете удалять свои сообщения
      Вы не можете голосовать в опросах
      Вы не можете прикреплять файлы к сообщениям
      Вы можете скачивать файлы