Ссылка на приватное зеркало нашего сайта всего за 1$. Внимание количество ограничено!!!

2 сезон

iTunes

1 сезон

1

iTunes

iTunes

iTunes

1 сезон

RePack

30

ИГРА 18+

pack

ВАЖНО

!!Акция!!

Alien_RageХит недели

RePack

MK11
pack

Забери бонус

RePack

jed

!!Акция!!

Alien_Rage

RePack

fifa19

RePack

Assassins Creed: Odyssey

RePack

NEED FOR SPEED™ PAYBACK

4 сезон

9 сезон

Бесстыжие 9 сезон

Все сериалы

все сериалы на PB.wtf

RePack

FAR CRY 5
  

Шулер / Серии: 1-10 из 10 (Эдуард Парри) [2013, драма, криминал, 2xDVD9] R5 «Мистерия Звука» pb.wtf

Шулер через торрент pb.wtf

Размер: 15.13 GB | Добавлен: 6 лет назад | Торрент скачан:130 раз
Скачать  

26-09-2014 10:45 Шулер Скачать торрент  


Шулер
Страна: Россия, Украина
Студия: Star Media
Жанр: драма, криминал
Год выпуска: 2013
Мировая премьера: 23 сентября 2013
Российская премьера: 13 ноября 2013
Дата выхода DVD: 3 декабря 2013
Продолжительность: 520 мин.
Перевод: Оригинал [Лицензия]
Cубтитры: нет
Оригинальная аудиодорожка: русский
Режиссер: Эдуард Парри
В ролях: Антон Феоктистов, Ольга Лерман, Сергей Сосновский, Алексей Горбунов, Юлия Галкина, Александр Робак, Наталья Ковалева, Автандил Бежиашвили, Вадим Цаллати, Александр Савенков
Описание: Одесса, 1980 год. У Костика Волошина есть мечта — удрать за кордон — социализм он строить не намерен. Костик ведет двойную жизнь — должность научного сотрудника НИИ — лишь прикрытие для шулерской деятельности, в которой Костик абсолютный профи.
Бонусы: нет

Релиз группы:
Качество: 2xDVD9 R5
Формат: DVD-Video
Видео кодек: MPEG2
Аудио кодек: AC3
Видео: PAL 16:9 (720x576(0.364)) MPEG Video, 25,000 кадр/сек, 3777 Кбит/сек
Аудио: Russian (Dolby AC3, 2 ch) 192 Кбит/сек, 48,0 КГц



Title: DVD1
Size: 7.52 Gb ( 7 889 008,00 KBytes ) - DVD-9
Enabled regions: 1, 2, 3, 4, 5, 6, 7, 8

VTS_01 :
Play Length: 00:00:16+04:16:39
Video: PAL 16:9 (720x576) VBR, Auto Letterboxed
Audio:
Russian (Dolby AC3, 2 ch)

* Menus Information *

VIDEO_TS Menu
Video:
NTSC 4:3 (720x480) VBR
Auto Pan&Scan, Auto Letterboxed
Russian Language Unit :
Title Menu

VTS_01 Menu
Video:
PAL 16:9 (720x576) VBR
Auto Letterboxed
Audio:
Not specified (Dolby AC3, 2 ch)
Russian Language Unit :
Root Menu
Chapter (PTT) Menu
Title: DVD2
Size: 7.60 Gb ( 7 970 868,00 KBytes ) - DVD-9
Enabled regions: 1, 2, 3, 4, 5, 6, 7, 8

VTS_01 :
Play Length: 00:00:16+04:19:31
Video: PAL 16:9 (720x576) VBR, Auto Letterboxed
Audio:
Russian (Dolby AC3, 2 ch)

* Menus Information *

VIDEO_TS Menu
Video:
NTSC 4:3 (720x480) VBR
Auto Pan&Scan, Auto Letterboxed
Russian Language Unit :
Title Menu

VTS_01 Menu
Video:
PAL 16:9 (720x576) VBR
Auto Letterboxed
Audio:
Not specified (Dolby AC3, 2 ch)
Russian Language Unit :
Root Menu
Chapter (PTT) Menu
Общее
Полное имя : F:\Новинки 2014\Shuler.2013.2xDVD9\DVD1\VIDEO_TS\VTS_01_1.VOB
Формат : MPEG-PS
Размер файла : 1024 Мбайт
Продолжительность : 35 м.
Режим общего битрейта : Переменный
Общий поток : 4050 Кбит/сек

Видео
Идентификатор : 224 (0xE0)
Формат : MPEG Video
Версия формата : Version 2
Профиль формата : Main@Main
Параметр BVOP формата : Да
Параметр матрицы формата : Выборочная
Параметр GOP формата : M=3, N=15
Продолжительность : 35 м.
Вид битрейта : Переменный
Битрейт : 3777 Кбит/сек
Максимальный битрейт : 8000 Кбит/сек
Ширина : 720 пикселей
Высота : 576 пикселей
Соотношение сторон : 16:9
Частота кадров : 25,000 кадров/сек
Стандарт вещания : PAL
Цветовое пространство : YUV
Субдискретизация насыщенности : 4:2:0
Битовая глубина : 8 бит
Метод сжатия : С потерями
Бит/(Пиксели*Кадры) : 0.364
Размер потока : 955 Мбайт (93%)

Аудио
Идентификатор : 189 (0xBD)-128 (0x80)
Формат : AC-3
Формат/Информация : Audio Coding 3
Расширение режима : CM (complete main)
Параметр Endianness формата : Big
Режим смешивания : DVD-Video
Продолжительность : 35 м.
Вид битрейта : Постоянный
Битрейт : 192 Кбит/сек
Каналы : 2 канала
Расположение каналов : Front: L R
Частота : 48,0 КГц
Битовая глубина : 16 бит
Метод сжатия : С потерями
Задержка видео : -50 мс.
Размер потока : 48,5 Мбайт (5%)










pb.wtf



Скачать Шулер через торрент http://i67.fastpic.ru/big/2014/0926/9d/c87921d34b4121e4dafec2c3d964479d.jpg Скачать фильм Шулер через торрент бесплантно в хорошем качестве Описание: Одесса, 1980 год. У Костика Волошина есть мечта — удрать за кордон — социализм он строить не намерен. Костик ведет двойную жизнь ... 9.9 10 7
Info! Золотая раздача, скачанное не засчитывается.
Торрент: Зарегистрирован [2014-09-26 10:45] · скачан: 130 раз
Статус: √ проверено
Размер: 15.13 GB
Как cкачать? Как скачать Шулер через торрент | qTorrent

28-11-2019 20:33  

Отключить всю рекламу на сайте

26-09-2014 11:01 Шулер Скачать торрент  

Админу понравится sarcasticpb.wtf



27-09-2014 16:48 Шулер Скачать торрент  

отличный сериал -уже просмотренpb.wtf



    Дорогой пользователь! Огромная просьба, поблагодарите релизера, оцените раздачу и оставьте свои комментарий, если Вы скачали Шулер через торрент бесплатно! Внесите свою лепту в развитие PiratBit!
    Комментировать посты могут только пользователи прошедшие не сложную регистрацию
    Показать сообщения:    

    Шулер через торрент
    Скачать бесплатно Шулер
    Шулер скачать торрент
    Шулер смотреть онлайн
    Cкачать фильм Шулер бесплатно
    Шулер скачать торрент в хорошем качестве
    Шулер смотреть онлайн бесплатно в хорошем качестве


    Вы не можете начинать темы
    Вы не можете отвечать на сообщения
    Вы не можете редактировать свои сообщения
    Вы не можете удалять свои сообщения
    Вы не можете голосовать в опросах
    Вы не можете прикреплять файлы к сообщениям
    Вы можете скачивать файлы