Ссылка на приватное зеркало всего за 1$. Внимание количество ограничено!!!

iTunes

iTunes

iTunes

1

iTunes

iTunes

iTunes

iTunes

iTunes

30
pack

$ от Little Big

ВАЖНО

!!Акция!!

Alien_RageХит недели

RePack

Resident Evil 21

ИГРА 18+

pack

RePack

jed

!!Акция!!

Alien_Rage

RePack

fifa19

RePack

Assassins Creed: Odyssey

RePack

NEED FOR SPEED™ PAYBACK

4 сезон

9 сезон

Бесстыжие 9 сезон

Все сериалы

все сериалы на PB.wtf

RePack

FAR CRY 5
  

Злая еда / Evil Feed (Кимани Рэй Смит / Kimani Ray Smith) [2013, Канада, ужасы, боевик, WEB-DL 720p, Любительский (одноголосый)] pb.wtf

Злая еда через торрент pb.wtf

Размер: 2.67 GB | Добавлен: 5 лет 9 мес. назад | Торрент скачан:115 раз
Скачать  

26-09-2014 11:47 Злая еда Скачать торрент  

Злая еда / Evil Feed

Год выпуска: 2013
Страна: Канада
Жанр: ужасы, боевик
Продолжительность: 01:29:29
Перевод: Любительский (одноголосый) [R.A.I.M.]
Любительский (одноголосый) [den904]

Субтитры: Английские
Режиссер: Кимани Рэй Смит / Kimani Ray Smith
В ролях:


Лейси Дж Мейли (Jenna), Терри Чен (Steven), Ален Ченоин (Tyrone), Элисон Бэт (Yuki), Дерек Гилрой (Brian), Бишоп (Carlos), Кертис Льюм (Pete), Себастьян Гаки (Nash), Дэвид Милчард (The Bookie), Кэрри Гензел (Madame Dragonfly), Джонсон Фэн (The Phammer), Anne Marie Corcuera (Hot Asian Hostess)

Описание:
Группа молодых мастеров боевых искусств попадает в подземные кольца боевых ям, где проигравшего рубят и подают на ужин в китайском ресторане.

Рейтинг:

Качество: WEB-DL 720p
Формат: MKV
Видео кодек:AVC
Аудио кодек:AC3
Видео: AVC, 1280x532 (2.40:1), 3687 kbps, 23,976 fps, 0,226 bpp
Аудио №1: русский / AC3 / 2.0 / 48 kHz / 192 kbps / 16 bit |Любительское (одноголосое) [den904]|
Аудио №2: русский / AC3 / 2.0 / 48 kHz / 192 kbps / 16 bit |Любительское (одноголосое) [R.A.I.M.]|
Аудио №3: английский / AC3 / 2.0 / 48 kHz / 192 kbps / 16 bit


General
Unique ID : 254910885283674046938739102414901693271 (0xBFC60CFB72F810E1A665B0BDEC014B57)
Complete name : D:\Users\_KaisiK_\uTorrent\КИНО\Evil.Feed.2013.WEB-DL.720p.CINEMANIA.mkv
Format : Matroska
Format version : Version 4 / Version 2
File size : 2.67 GiB
Duration : 1h 29mn
Overall bit rate : 4 264 Kbps
Movie name : Release Group CINEMANIA
Encoded date : UTC 2014-09-24 12:47:30
Writing application : mkvmerge v7.2.0 ('On Every Street') 64bit built on Sep 13 2014 15:52:10
Writing library : libebml v1.3.0 + libmatroska v1.4.1

Video
ID : 1
Format : AVC
Format/Info : Advanced Video Codec
Format profile : High@L4.1
Format settings, CABAC : Yes
Format settings, ReFrames : 9 frames
Codec ID : V_MPEG4/ISO/AVC
Duration : 1h 29mn
Bit rate : 3 687 Kbps
Width : 1 280 pixels
Height : 532 pixels
Display aspect ratio : 2.40:1
Frame rate : 23.976 fps
Color space : YUV
Chroma subsampling : 4:2:0
Bit depth : 8 bits
Scan type : Progressive
Bits/(Pixel*Frame) : 0.226
Stream size : 2.25 GiB (85%)
Title : Release Group CINEMANIA
Writing library : x264 core 130 r2273 b3065e6
Encoding settings : cabac=1 / ref=9 / deblock=1:-3:-3 / analyse=0x3:0x133 / me=umh / subme=11 / psy=1 / psy_rd=1.00:0.20 / mixed_ref=1 / me_range=32 / chroma_me=1 / trellis=2 / 8x8dct=1 / cqm=0 / deadzone=21,11 / fast_pskip=1 / chroma_qp_offset=-3 / threads=18 / lookahead_threads=3 / sliced_threads=0 / nr=0 / decimate=1 / interlaced=0 / bluray_compat=0 / constrained_intra=0 / bframes=8 / b_pyramid=2 / b_adapt=2 / b_bias=0 / direct=3 / weightb=1 / open_gop=0 / weightp=2 / keyint=250 / keyint_min=23 / scenecut=40 / intra_refresh=0 / rc=2pass / mbtree=0 / bitrate=3687 / ratetol=1.0 / qcomp=0.60 / qpmin=0 / qpmax=69 / qpstep=4 / cplxblur=20.0 / qblur=0.5 / ip_ratio=1.40 / pb_ratio=1.30 / aq=1:1.00
Language : English
Default : Yes
Forced : No
Color primaries : BT.709-5, BT.1361, IEC 61966-2-4, SMPTE RP177
Transfer characteristics : BT.709-5, BT.1361
Matrix coefficients : BT.709-5, BT.1361, IEC 61966-2-4 709, SMPTE RP177

Audio #1
ID : 2
Format : AC-3
Format/Info : Audio Coding 3
Mode extension : CM (complete main)
Codec ID : A_AC3
Duration : 1h 29mn
Bit rate mode : Constant
Bit rate : 192 Kbps
Channel(s) : 2 channels
Channel positions : Front: L R
Sampling rate : 48.0 KHz
Bit depth : 16 bits
Compression mode : Lossy
Stream size : 123 MiB (5%)
Title : den904
Language : Russian
Default : Yes
Forced : Yes

Audio #2
ID : 3
Format : AC-3
Format/Info : Audio Coding 3
Mode extension : CM (complete main)
Codec ID : A_AC3
Duration : 1h 29mn
Bit rate mode : Constant
Bit rate : 192 Kbps
Channel(s) : 2 channels
Channel positions : Front: L R
Sampling rate : 48.0 KHz
Bit depth : 16 bits
Compression mode : Lossy
Stream size : 123 MiB (5%)
Title : R.A.I.M.
Language : Russian
Default : No
Forced : No

Audio #3
ID : 4
Format : AC-3
Format/Info : Audio Coding 3
Mode extension : CM (complete main)
Codec ID : A_AC3
Duration : 1h 29mn
Bit rate mode : Constant
Bit rate : 192 Kbps
Channel(s) : 2 channels
Channel positions : Front: L R
Sampling rate : 48.0 KHz
Bit depth : 16 bits
Compression mode : Lossy
Stream size : 123 MiB (5%)
Language : English
Default : No
Forced : No

Text
ID : 5
Format : UTF-8
Codec ID : S_TEXT/UTF8
Codec ID/Info : UTF-8 Plain Text
Language : English
Default : No
Forced : No

Menu
00:00:00.000 : en:The Family Business
00:11:46.000 : en:Something's Not Right
00:20:04.000 : en:Bring It On
00:29:30.000 : en:You Are What You Eat
00:45:24.000 : en:Madame Dragonfly
00:54:01.000 : en:Massage
01:05:55.000 : en:Rescued
01:13:20.000 : en:Revenge Is A Bitch
01:17:54.000 : en:You Don't Get To Apologize
01:25:46.000 : en:Credits

[/code]
pb.wtf



Скачать Злая еда через торрент http://i6.imageban.ru/out/2014/09/26/eb99a3700f3a0e190aaf8fd5d372a43e.jpg Скачать фильм Злая еда через торрент бесплантно в хорошем качестве Описание: Группа молодых мастеров боевых искусств попадает в подземные кольца боевых ям, где проигравшего рубят и подают на ужин в ... 9.3 10 7
Торрент: Зарегистрирован [2014-09-26 11:47] · скачан: 115 раз
Статус: √ проверено
Размер: 2.67 GB
Как cкачать? Как скачать Злая еда через торрент | qTorrent

% Раздел Тема Автор DL S | L
T Фильмы 2013 (Звук TS, Cam, VO, DVO) [ 1.36 GB ] Злая еда / Evil Feed [2013 WEB-DLRip] VO Ворон Скачать
1 | 0


Последний раз редактировалось: _KaisiK_ (2014-12-11 13:55), всего редактировалось 2 раз(а)

28-11-2019 20:33  

Отключить всю рекламу на сайте

    Дорогой пользователь! Огромная просьба, поблагодарите релизера, оцените раздачу и оставьте свои комментарий, если Вы скачали Злая еда через торрент бесплатно! Внесите свою лепту в развитие PiratBit!
    Комментировать посты могут только пользователи прошедшие не сложную регистрацию
    Показать сообщения:    

    Злая еда через торрент
    Скачать бесплатно Злая еда
    Злая еда скачать торрент
    Злая еда смотреть онлайн
    Cкачать фильм Злая еда бесплатно
    Злая еда скачать торрент в хорошем качестве
    Злая еда смотреть онлайн бесплатно в хорошем качестве


    Вы не можете начинать темы
    Вы не можете отвечать на сообщения
    Вы не можете редактировать свои сообщения
    Вы не можете удалять свои сообщения
    Вы не можете голосовать в опросах
    Вы не можете прикреплять файлы к сообщениям
    Вы можете скачивать файлы